<?xml version="1.0" standalone="no"?>
<!DOCTYPE svg PUBLIC "-//W3C//DTD SVG 1.1//EN" "http://www.w3.org/Graphics/SVG/1.1/DTD/svg11.dtd">
<svg xmlns="http://www.w3.org/2000/svg">
<metadata>Copyright (C) 2020 by original authors @ fontello.com</metadata>
<defs>
<font id="fontello" horiz-adv-x="1000" >
<font-face font-family="fontello" font-weight="400" font-stretch="normal" units-per-em="1000" ascent="850" descent="-150" />
<missing-glyph horiz-adv-x="1000" />
<glyph glyph-name="4793---spoon" unicode="&#xe800;" d="M163 687c30 31 73 42 119 36 44-5 89-28 127-65l0 0c37-38 60-84 66-127 6-46-6-89-36-119l0 0c-31-31-74-42-119-37-44 6-90 29-128 66-37 38-60 84-65 127-6 46 5 89 36 119z m115 6c-36 4-70-4-93-28-24-23-32-57-28-93 5-37 25-76 57-109 33-32 72-52 110-57 35-4 69 4 92 28l0 0c24 23 32 57 28 93-5 37-25 76-57 109l0 0c-33 32-72 52-109 57z m264-443l58 58 0 0c6 6 16 6 22 0l0 0 236-236c12-11 17-26 17-40 0-15-5-29-17-40l0 0c-11-12-25-17-40-17-14 0-29 5-40 17l-236 236 0 0c-6 6-6 16 0 22l0 0z m69 25l-36-36 225-225c5-5 12-8 18-8 7 0 13 3 18 8l0 0c5 5 8 11 8 18 0 6-3 13-8 18l-225 225z m-170 156c-6 6-16 6-22 0-6-6-6-16 0-22l130-130 22 22-130 130z" horiz-adv-x="1000" />

<glyph glyph-name="4837---seafood-recipes" unicode="&#xe801;" d="M305 663l453 0c9 0 16-7 16-16l0-672c0-9-7-16-16-16l-453 0c-9 0-16 7-16 16l0 672c0 9 7 16 16 16z m438-32l-422 0 0-640 422 0 0 640z m-442 0c8 1 15 8 15 16 0 9-8 16-16 15-18 0-33 6-40 15-2 2-3 4-3 6 0 1 1 3 3 6 11 11 40 20 96 20l0 0 360 0 22-58c3-8 12-12 20-9 8 2 12 11 9 19l-25 68c-2 7-8 12-15 12l-371 0 0 0 0 0 0 0c-66-1-102-14-118-31-8-8-12-17-12-27 0-9 3-18 9-26 13-15 37-27 66-26z m-43 53c0 8-7 15-16 15-9 0-16-7-16-15l0-644c0 0 0-1 1-2 1-20 8-36 20-49 11-13 28-23 48-29 9-2 17 2 20 11 2 8-2 16-11 19-15 4-26 11-34 19-7 8-11 19-12 31l0 0 0 644z m211-131c-8 0-15-7-15-15 0-9 7-16 15-16l125 0c9 0 16 7 16 16 0 8-7 15-16 15l-125 0z m-62-62c-9 0-16-7-16-16 0-9 7-16 16-16l250 0c8 0 15 7 15 16 0 9-7 16-15 16l-250 0z m104-153c32 0 62-9 88-24 26-16 48-38 64-65l0 0c1-2 1-6-1-8-15-27-37-49-63-64-26-15-56-24-88-24-32 0-62 9-88 24-26 15-48 38-64 65l0 0c-1 2-1 5 1 8 15 26 37 49 63 64 26 15 56 24 88 24z m80-38c-24 14-51 22-80 22-29 0-56-8-80-22-23-13-42-32-56-55 14-22 33-41 56-55 24-13 51-21 80-21 29 0 56 8 80 21 23 14 42 33 56 55-14 23-33 42-56 55z m-175 2c-4 2-8 0-10-4-2-4 0-8 4-10 9-4 17-10 22-18l0 0 0 0 0 0c0 0 0 0 0 0 6-8 9-17 9-27 0-4 3-8 7-8 5 0 8 4 8 8 0 13-4 25-11 36 0 0 0 0 0 0l-6-4 6 4c-7 10-17 19-29 23z m-3-39c4 0 7-2 10-4 3-3 4-6 4-10 0-4-1-7-4-10-3-2-6-4-10-4-4 0-7 2-10 4l0 0 0 0 0 0c0 0 0 1 0 1-3 2-4 6-4 9 0 4 2 7 4 10 3 2 6 4 10 4z m1-13l-1-1 0 0 0 0 0 0 0 0-1-1 0 0 1 1 0 0 0 0 0 0 0 0 0 0 0 0 0 0 0 0 0 0-1-1 0 0 1 1 0-1c0 0-1 0-1 0l0 0 0 0 0 0 0 0m3 1l-2 0 1 1 0 0-1-1m-1-1l0 0-3-3 3 3z m2 0l-1 1 0 0 2 0 0 0c-1 0-1 1-1 1l0 0 0 0 0 0 0 0 0 0-1-1m0 0l1-1c0 0 0 1 1 1m-2 0l0 0m0 0l0-1c0 0 1 0 1 0m-1 1l0 0m0 0l0 0m277 19l-23-23 23-22 0 45z m-40-17l42 41c1 2 3 3 5 3 5 0 8-4 8-8l0-83c0-2-1-4-2-5-3-3-8-3-11 0l0 0-41 41-1 0c-3 3-3 8 0 11l0 0z m-127 94c3 3 2 8-1 11-3 3-8 2-11-1l-14-15c-2-4-2-9 1-11 3-3 8-3 11 0l14 16z m25-4c3 3 2 8-1 11-3 3-8 3-11-1l-14-15c-2-4-2-8 1-11 3-3 8-3 11 0l14 16z m25-4c3 3 2 8-1 11-3 3-8 3-11-1l-14-15c-2-3-2-8 1-11 3-3 8-3 11 1l14 15z m25-4c3 4 2 9-1 11-3 3-8 3-11 0l-14-16c-2-3-2-8 1-11 3-3 8-2 11 1l14 15z m-62-193c3-3 8-4 11-1 3 3 4 8 1 11l-14 16c-3 3-8 3-11 0-3-2-3-7-1-11l14-15z m25 4c3-4 8-4 11-1 3 3 4 8 1 11l-14 16c-3 3-8 3-11 0-3-3-3-7-1-11l14-15z" horiz-adv-x="1000" />

<glyph glyph-name="4838---dessert-recipes" unicode="&#xe802;" d="M305 663l453 0c9 0 16-7 16-16l0-672c0-9-7-16-16-16l-453 0c-9 0-16 7-16 16l0 672c0 9 7 16 16 16z m438-32l-422 0 0-640 422 0 0 640z m-442 0c8 1 15 8 15 16 0 9-8 16-16 15-18 0-33 6-40 15-2 2-3 4-3 6 0 1 1 3 3 6 11 11 40 20 96 20l0 0 360 0 22-58c3-8 12-12 20-9 8 2 12 11 9 19l-25 68c-2 7-8 12-15 12l-371 0 0 0 0 0 0 0c-66-1-102-14-118-31-8-8-12-17-12-27 0-9 3-18 9-26 13-15 37-27 66-26z m-43 53c0 8-7 15-16 15-9 0-16-7-16-15l0-644c0 0 0-1 1-2 1-20 8-36 20-49 11-13 28-23 48-29 9-2 17 2 20 11 2 8-2 16-11 19-15 4-26 11-34 19-7 8-11 19-12 31l0 0 0 644z m211-131c-8 0-15-7-15-15 0-9 7-16 15-16l125 0c9 0 16 7 16 16 0 8-7 15-16 15l-125 0z m-62-62c-9 0-16-7-16-16 0-9 7-16 16-16l250 0c8 0 15 7 15 16 0 9-7 16-15 16l-250 0z m247-268l-44-135 0 0c-1-4-4-6-7-6l-143 0c-3 0-6 3-7 6l-44 135 7 2-7-2c-1 4 1 9 5 10 1 0 2 0 3 0l230 0c4 0 8-3 8-8 0-1-1-2-1-2z m-57-125l39 120-209 0 39-120 131 0z m-166 124c2-4 7-5 10-3 4 2 6 7 3 10-1 3-3 6-4 10-1 3-1 6-1 10-1 11 6 20 14 28 10 12 21 24 22 46 0 10 4 19 10 25 7 6 15 10 24 10 17 0 23-9 31-18 7-9 14-19 29-25 15-6 29-12 40-21 9-8 16-18 16-32 0-6-1-12-3-17-2-5-4-10-8-15-2-3-2-8 2-11 3-2 8-2 10 2 5 6 8 12 11 19 2 7 3 14 3 22 0 19-8 33-21 44-12 10-28 18-44 24-11 4-17 12-23 20-10 12-18 23-43 23-13 0-26-5-35-14-9-9-14-22-15-36 0-16-9-26-18-35-10-12-19-22-18-40 0-5 1-9 2-14 2-4 4-8 6-12z m55-20c-1 4-6 7-10 6-4-1-7-6-5-10l22-84c1-4 5-7 9-6 4 1 7 5 6 10l-22 84z m103-4c1 4-1 9-5 10-5 1-9-2-10-6l-22-84c-1-5 2-9 6-10 4-1 8 2 9 6l22 84z m-49 2c0 4-4 8-8 8-5 0-8-4-8-8l0-84c0-5 3-8 8-8 4 0 7 3 7 8l1 84z" horiz-adv-x="1000" />

<glyph glyph-name="4839---drinks-recipes" unicode="&#xe803;" d="M305 663l453 0c9 0 16-7 16-16l0-672c0-9-7-16-16-16l-453 0c-9 0-16 7-16 16l0 672c0 9 7 16 16 16z m438-32l-422 0 0-640 422 0 0 640z m-442 0c8 1 15 8 15 16 0 9-8 16-16 15-18 0-33 6-40 15-2 2-3 4-3 6 0 1 1 3 3 6 11 11 40 20 96 20l0 0 360 0 22-58c3-8 12-12 20-9 8 2 12 11 9 19l-25 68c-2 7-8 12-15 12l-371 0 0 0 0 0 0 0c-66-1-102-14-118-31-8-8-12-17-12-27 0-9 3-18 9-26 13-15 37-27 66-26z m-43 53c0 8-7 15-16 15-9 0-16-7-16-15l0-644c0 0 0-1 1-2 1-20 8-36 20-49 11-13 28-23 48-29 9-2 17 2 20 11 2 8-2 16-11 19-15 4-26 11-34 19-7 8-11 19-12 31l0 0 0 644z m211-131c-8 0-15-7-15-15 0-9 7-16 15-16l125 0c9 0 16 7 16 16 0 8-7 15-16 15l-125 0z m-62-62c-9 0-16-7-16-16 0-9 7-16 16-16l250 0c8 0 15 7 15 16 0 9-7 16-15 16l-250 0z m176-136c6-8 11-18 14-29 3-11 5-23 5-35 0-26-8-49-20-66-13-18-31-29-50-29-20 0-38 11-51 29-12 17-19 40-19 66 0 12 1 24 4 35 4 11 8 21 14 30l0 0c2 3 6 4 9 3 7-2 14-3 21-4 7 0 14-1 22-1 7 0 15 1 22 1 7 1 14 2 21 4l0 0c3 1 7-1 8-4z m-1-34c-2 8-5 15-9 22-6-1-12-2-18-3-7-1-15-1-23-1-8 0-16 0-24 1-6 1-12 2-17 3-4-7-7-14-10-22-2-9-4-19-4-30 0-22 7-42 17-57 10-14 23-22 38-22 14 0 27 8 37 22 11 15 17 35 17 57 0 11-1 21-4 30z m-43-119c0 5-3 8-7 8-5 0-8-3-8-8l0-79c0-5 3-8 8-8 4 0 7 3 7 8l0 79z m-61-81c-4-2-5-7-3-11 2-3 6-5 10-3 5 2 12 4 20 6 8 1 17 2 26 2 10 0 20-1 27-2 9-2 15-4 20-6 4-2 9-1 11 3 2 4 0 9-4 11-6 3-14 5-24 7-9 2-19 2-30 2-10 0-20 0-29-2-9-2-18-4-24-7z" horiz-adv-x="1000" />

<glyph glyph-name="4840---soup-recipes" unicode="&#xe804;" d="M305 663l453 0c9 0 16-7 16-16l0-672c0-9-7-16-16-16l-453 0c-9 0-16 7-16 16l0 672c0 9 7 16 16 16z m438-32l-422 0 0-640 422 0 0 640z m-442 0c8 1 15 8 15 16 0 9-8 16-16 15-18 0-33 6-40 15-2 2-3 4-3 6 0 1 1 3 3 6 11 11 40 20 96 20l0 0 360 0 22-58c3-8 12-12 20-9 8 2 12 11 9 19l-25 68c-2 7-8 12-15 12l-371 0 0 0 0 0 0 0c-66-1-102-14-118-31-8-8-12-17-12-27 0-9 3-18 9-26 13-15 37-27 66-26z m-43 53c0 8-7 15-16 15-9 0-16-7-16-15l0-644c0 0 0-1 1-2 1-20 8-36 20-49 11-13 28-23 48-29 9-2 17 2 20 11 2 8-2 16-11 19-15 4-26 11-34 19-7 8-11 19-12 31l0 0 0 644z m211-131c-8 0-15-7-15-15 0-9 7-16 15-16l125 0c9 0 16 7 16 16 0 8-7 15-16 15l-125 0z m-62-62c-9 0-16-7-16-16 0-9 7-16 16-16l250 0c8 0 15 7 15 16 0 9-7 16-15 16l-250 0z m25-161l201 0c4 0 7-1 9-4 2-2 3-5 3-8l0-99c0-15-6-28-15-37-10-10-23-16-38-16l-119 0c-15 0-28 6-38 16-9 9-15 22-15 37l0 99c0 3 1 6 3 8 2 3 5 4 9 4z m198-16l-195 0 0-95c0-10 5-20 11-26 7-7 17-11 27-11l119 0c11 0 20 4 27 11 6 6 11 16 11 26l0 95z m-210 37c-4 0-7-4-7-8 0-4 3-8 7-8l225 0c4 0 8 4 8 8 0 4-4 8-8 8l-225 0z m113-16l-23 0c-4 0-8 4-8 8 0 8 4 16 9 21 6 6 13 9 22 9 8 0 16-3 21-9 6-5 9-13 9-21 0-4-4-8-8-8l-22 0z m-13 16l13 0 12 0c-1 1-1 2-2 2-3 3-6 5-10 5-5 0-8-2-11-5-1 0-1-1-2-2z m112-74c-3-3-3-8 0-11 4-3 8-3 11 1 5 4 10 9 16 12 6 3 12 6 18 7 1 0 8 0 12 0 1 0 3 0 3 0 4 0 7 4 7 8 0 5-4 8-8 8 0 0-1 0-3 0-4 0-12-1-14-1-7-1-15-4-23-9-7-4-14-9-19-15z m-212-10c3-4 8-4 11-1 3 3 4 8 1 11-6 6-13 11-20 15-7 5-16 8-23 9-2 0-9 1-14 1-1 0-2 0-3 0-4 0-8-3-8-8 0-4 3-8 7-8 1 0 2 0 4 0 4 0 11 0 11 0 6-1 12-4 19-7 5-3 11-8 15-12z" horiz-adv-x="1000" />

<glyph glyph-name="4841---italian-recipes" unicode="&#xe805;" d="M305 663l453 0c9 0 16-7 16-16l0-672c0-9-7-16-16-16l-453 0c-9 0-16 7-16 16l0 672c0 9 7 16 16 16z m438-32l-422 0 0-640 422 0 0 640z m-442 0c8 1 15 8 15 16 0 9-8 16-16 15-18 0-33 6-40 15-2 2-3 4-3 6 0 1 1 3 3 6 11 11 40 20 96 20l0 0 360 0 22-58c3-8 12-12 20-9 8 2 12 11 9 19l-25 68c-2 7-8 12-15 12l-371 0 0 0 0 0 0 0c-66-1-102-14-118-31-8-8-12-17-12-27 0-9 3-18 9-26 13-15 37-27 66-26z m-43 53c0 8-7 15-16 15-9 0-16-7-16-15l0-644c0 0 0-1 1-2 1-20 8-36 20-49 11-13 28-23 48-29 9-2 17 2 20 11 2 8-2 16-11 19-15 4-26 11-34 19-7 8-11 19-12 31l0 0 0 644z m211-131c-8 0-15-7-15-15 0-9 7-16 15-16l125 0c9 0 16 7 16 16 0 8-7 15-16 15l-125 0z m-62-62c-9 0-16-7-16-16 0-9 7-16 16-16l250 0c8 0 15 7 15 16 0 9-7 16-15 16l-250 0z m84-304c3-4 8-5 11-2 3 3 4 8 2 11-2 3-4 5-5 8-1 3-2 6-2 9 0 9 5 18 14 24 8 7 20 11 34 11 10 0 19-2 26-6 8-4 14-10 17-16l7 4-7-4c2-3 6-5 10-3 2 0 4 1 6 1 2 0 4 0 6 0 7 0 13-1 17-4 5-2 8-5 10-8 3-3 4-6 4-10 0-2-1-5-2-7-2-4 0-9 4-11 3-2 8 0 10 4 2 5 3 9 3 14 0 7-2 13-6 19-4 5-9 10-16 13-7 4-15 6-24 6-3 0-6 0-9-1-1 0-1 0-2 0-5 7-12 12-21 17-9 5-21 8-33 8-17 0-33-6-44-15-12-9-19-22-19-36 0-5 1-9 2-14 2-4 4-9 7-12z m13 48c4 0 8 2 9 7 1 4-2 8-6 9-11 2-23 1-34-3-8-3-15-8-20-14-6 1-12 0-17-1-7-2-13-5-18-10-4-4-8-10-9-16-2-5-3-11-1-17 1-4 5-7 9-6 5 1 7 6 6 10-1 3-1 6 0 9 1 3 4 6 6 9 3 3 7 5 11 6 4 1 9 1 14 0 3-2 8 0 9 3l-6 4 6-4c4 6 9 10 16 12 8 3 17 4 25 2z m-129-39c-4 0-7-3-7-7 0-5 3-8 7-8l313 0c4 0 8 3 8 8 0 4-4 7-8 7l-313 0z m264-12l-16-26-7 5 7-5c-2-2-4-3-7-3l0 0-169 0c-3 0-6 1-7 4l-16 25 0 0c-2 4-1 9 3 11 1 1 2 1 4 1l0 0 202 0c4 0 7-3 7-7 0-2 0-4-1-5z m-27-14l6 11-173 0 6-11 161 0z m-78 195c2 4 0 8-3 11-4 2-9 0-11-4-6-10-9-18-8-26 0-8 4-15 11-24 3-3 5-7 6-12 0-3 0-7-2-12-2-4-1-9 3-10 4-2 9-1 11 3 3 8 4 15 3 21-1 8-4 15-9 20-5 6-8 11-8 15 0 4 2 10 7 18z m34-15c3 3 1 8-3 10-3 2-8 1-10-3-5-8-7-14-7-20 1-6 4-12 9-19 2-2 4-4 4-7 0-2 0-5-2-8-1-4 0-8 4-10 4-2 9-1 10 3 3 6 4 12 3 17 0 6-3 11-7 15-3 4-5 7-5 10 0 2 1 6 4 12z m-76-40c-2-4-1-8 3-11 4-2 9 0 11 4 3 5 4 9 4 13 0 5-2 9-6 13-1 1-2 2-2 3 0 1 0 2 1 3 2 4 0 8-4 10-4 2-8 1-10-3-2-4-3-8-2-12 0-4 2-8 5-11 1-2 2-3 2-4 0 0-1-2-2-5z" horiz-adv-x="1000" />

<glyph glyph-name="4842---fast-food-recipes" unicode="&#xe806;" d="M305 663l453 0c9 0 16-7 16-16l0-672c0-9-7-16-16-16l-453 0c-9 0-16 7-16 16l0 672c0 9 7 16 16 16z m438-32l-422 0 0-640 422 0 0 640z m-442 0c8 1 15 8 15 16 0 9-8 16-16 15-18 0-33 6-40 15-2 2-3 4-3 6 0 1 1 3 3 6 11 11 40 20 96 20l0 0 360 0 22-58c3-8 12-12 20-9 8 2 12 11 9 19l-25 68c-2 7-8 12-15 12l-371 0 0 0 0 0 0 0c-66-1-102-14-118-31-8-8-12-17-12-27 0-9 3-18 9-26 13-15 37-27 66-26z m-43 53c0 8-7 15-16 15-9 0-16-7-16-15l0-644c0 0 0-1 1-2 1-20 8-36 20-49 11-13 28-23 48-29 9-2 17 2 20 11 2 8-2 16-11 19-15 4-26 11-34 19-7 8-11 19-12 31l0 0 0 644z m211-131c-8 0-15-7-15-15 0-9 7-16 15-16l125 0c9 0 16 7 16 16 0 8-7 15-16 15l-125 0z m-62-62c-9 0-16-7-16-16 0-9 7-16 16-16l250 0c8 0 15 7 15 16 0 9-7 16-15 16l-250 0z m125-133c30 0 58-12 78-31 21-19 35-46 38-76l0 0c0-4-3-8-7-8-1 0-2 0-3 0-1 0-2 0-3 0-1 1-2 1-3 1l-201 0c-1 0-2 0-3-1-1 0-2 0-3 0l0 0c-4-1-8 2-9 6 0 1 0 2 0 3 2 29 16 56 37 75 21 19 48 31 79 31z m68-42c-18 16-42 26-68 26-27 0-50-10-68-26-16-15-28-35-32-57l199 0c-4 22-15 42-31 57z m48-134l0-38c0-9-4-17-9-23-6-6-14-9-23-9l-169 0c-8 0-17 3-22 9-6 6-10 14-10 23l0 38c0 4 4 8 8 8 1 0 2-1 2-1 1 0 2 0 3 0 1 0 2 0 3 0l201 0c2 0 3 0 4 0 1 0 2 0 3 0l0 0c4 1 8-1 9-5 0-1 0-2 0-2z m-16-38l0 29 0 0-201 0 0 0 0-29c0-5 2-9 5-12 3-3 7-5 11-5l169 0c4 0 9 2 12 5 3 3 4 7 4 12z m-201 115l201 0c12 0 23-5 31-12 8-8 12-19 12-31l0 0c0-12-4-22-12-30-8-8-19-13-31-13l-201 0c-12 0-23 5-31 13-7 8-12 18-12 30l0 0c0 12 5 23 12 31 8 7 19 12 31 12z m201-15l-201 0c-8 0-14-3-19-8-5-5-9-12-9-20l0 0c0-7 4-14 9-19 5-5 11-8 19-8l201 0c8 0 15 3 20 8 5 5 8 12 8 19l0 0c0 8-3 15-8 20-5 5-12 8-20 8z" horiz-adv-x="1000" />

<glyph glyph-name="4793---spoon-1" unicode="&#xe807;" d="M163 687c30 31 73 42 119 36 44-5 89-28 127-65l0 0c37-38 60-84 66-127 6-46-6-89-36-119l0 0c-31-31-74-42-119-37-44 6-90 29-128 66-37 38-60 84-65 127-6 46 5 89 36 119z m115 6c-36 4-70-4-93-28-24-23-32-57-28-93 5-37 25-76 57-109 33-32 72-52 110-57 35-4 69 4 92 28l0 0c24 23 32 57 28 93-5 37-25 76-57 109l0 0c-33 32-72 52-109 57z m264-443l58 58 0 0c6 6 16 6 22 0l0 0 236-236c12-11 17-26 17-40 0-15-5-29-17-40l0 0c-11-12-25-17-40-17-14 0-29 5-40 17l-236 236 0 0c-6 6-6 16 0 22l0 0z m69 25l-36-36 225-225c5-5 12-8 18-8 7 0 13 3 18 8l0 0c5 5 8 11 8 18 0 6-3 13-8 18l-225 225z m-170 156c-6 6-16 6-22 0-6-6-6-16 0-22l130-130 22 22-130 130z" horiz-adv-x="1000" />

<glyph glyph-name="4794---fork" unicode="&#xe808;" d="M285 721c-6 6-16 5-22-1-5-7-5-17 2-22l125-111c2-2 4-4 7-6 20-20 27-40 26-58-2-20-12-38-26-55-2-2-5-5-7-7-3-3-6-6-8-7-16-15-35-25-54-27-19-1-39 7-59 26-2 3-4 5-6 7l-111 125c-5 7-15 7-22 2-6-6-7-16-1-22l111-126c3-3 5-6 7-8 27-27 55-36 83-35 26 2 51 15 73 34 3 3 6 6 9 8 2 3 5 6 8 9 19 22 32 47 34 74 2 27-8 55-35 82-2 2-5 4-8 7l-126 111z m238-456l62 62 0 0c6 6 16 6 22 0l0 0 251-251c11-11 17-26 17-42 0-15-6-30-17-42l0 0 0 0c-12-11-27-17-42-17-16 0-31 6-42 17l0 0-251 251 0 0c-6 6-6 16 0 22l0 0z m73 29l-40-40 240-240 0 0c5-5 12-8 20-8 7 0 14 3 20 8l0 0 0 0c5 6 8 13 8 20 0 8-3 15-8 20l-240 240z m-182 164c-6 6-16 6-22 0-6-6-6-16 0-22l140-140 22 22-140 140z m-225 177c-7 6-16 6-23 0-6-6-6-16 0-22l188-188c6-6 16-6 22 0 6 6 6 16 0 22l-187 188z m48 49c-6 6-16 6-22 0-6-6-6-16 0-22l188-188c6-6 16-6 22 0 6 6 6 16 0 22l-188 188z" horiz-adv-x="1000" />

<glyph glyph-name="4795---knife" unicode="&#xe809;" d="M185 7c68 3 145 43 213 101 82 70 148 165 164 251l0 0c0 0 0 0 0 0l0 5c0 0 0 0 0 0-1 10-2 27 4 41 7 19 22 31 55 22 19 22 61 68 105 118 42 46 83 92 106 117-3 9-7 16-12 22-6 5-13 8-23 9l-612-686z m233 77c-80-68-175-116-257-109-7 1-15 1-20 5-6 6-7 16-1 22l639 717c3 4 7 6 12 6l0 0c22-1 38-7 50-19 12-11 19-26 23-44 1-5 0-11-4-15l0 0c-19-22-64-72-110-123-41-46-86-95-112-124-4-6-12-8-18-6l0 1c-17 6-23 4-25-1-3-8-2-20-2-28 1-6 1-11 0-15-19-93-89-193-175-267z m393 582c3 3 2 8-1 11-3 2-8 2-11-1l-190-213c-3-4-3-9 0-11 4-3 8-3 11 0l191 214z" horiz-adv-x="1000" />

<glyph glyph-name="4796---meat-cleaver" unicode="&#xe80a;" d="M567 462c2 4 4 8 6 11 11 20 11 43 21 57 12 16 30 25 59 8 30 20 74 50 116 78 32 21 61 41 81 55 0 9-2 17-6 23-4 7-11 12-20 15l-286-195-363-246c-13-9-21-22-24-37-3-15 0-30 9-43l131-193 397 270-121 179 0 0c-4 5-4 12 0 18z m34-3c-1-2-2-4-3-6l124-182c0 0 1 0 1-1 5-7 3-17-4-22l-9 13 9-13-422-287c-1 0-1 0-1 0-8-5-17-3-22 4l13 8-13-8-140 205c-14 21-18 44-14 67 5 22 17 43 38 57l362 246 292 199c4 3 9 4 14 3l0 0c21-6 35-17 44-31 9-13 12-30 11-48 0-5-2-11-7-14l-8 13 8-13c-23-16-55-37-88-59-45-31-94-63-123-83-5-4-13-5-19 0l9 12-9-12c-15 10-21 9-24 5-5-7-7-19-9-27-1-5-1-10-4-14-2-4-4-8-6-12z m41 113c-3-3-4-7-2-11 2-4 7-5 11-2l185 123c4 2 5 7 3 11-3 3-8 4-11 2l-186-123z m-404-356c1 8 0 16-5 23-5 8-12 12-20 14-8 1-16 0-23-5-7-5-12-12-13-20-2-8 0-16 4-24 5-7 13-11 20-13 8-1 17 0 24 5 7 5 11 12 13 20z m-31 6l0 0 0 0 0 0 0 0z" horiz-adv-x="1000" />

<glyph glyph-name="4797---pizza-cuttier" unicode="&#xe80b;" d="M310 160l0 0c4-5 10-7 16-7 6 0 12 2 17 7l0 0 0 0c4 4 7 10 7 16 0 6-3 12-7 17l0 0 0 0c-5 5-11 7-17 7-6 0-12-2-16-7l0 0 0 0c-5-5-7-11-7-17 0-6 2-12 7-16l0 0z m-11-11l0 0 0 0c-8 7-12 17-12 27 0 10 4 20 12 28l0 0 0 0c7 8 17 11 27 11 10 0 20-3 28-11l0 0 0 0c7-8 11-18 11-28 0-10-4-20-11-27l0 0 0 0c-8-8-18-12-28-12-10 0-20 4-27 12z m-33-33c17-16 38-25 60-25 22 0 44 9 60 25 17 17 25 39 25 60 0 22-8 44-25 60-16 17-38 25-60 25-22 0-43-8-60-25-17-16-25-38-25-60 0-21 8-43 25-60z m60-40c-26 0-51 10-71 29-20 20-29 46-29 71 0 26 9 52 29 72 20 19 45 29 71 29 26 0 52-10 71-29 20-20 30-46 30-72 0-25-10-51-30-71-19-19-45-29-71-29z m-97-32l25 4 0 0c7 1 14-3 16-9l11-20 21 12 0 0c6 3 14 2 19-3l16-15 15 18 12-10-12 10c4 5 12 7 18 4l21-9 8 22 15-6-15 6c3 7 10 11 17 10l23-1 1 25 15-1-15 1c0 7 5 13 11 15l23 7-8 23 14 5-14-5c-3 7 0 14 5 18l18 14-15 18 0 0c-5 6-5 14 0 19l11 19-20 11 8 14-8-14c-6 4-9 12-7 19l5 21-23 5 3 15-3-15c-7 1-12 7-13 14l-3 24-25-4 0 0c-7-1-14 3-17 9l-11 20-20-12 0 0c-6-4-14-2-19 3l-17 15-14-18-12 10 12-10c-5-5-13-7-19-4l-21 9-8-22-15 5 15-5c-3-7-10-11-16-10l-23 1-1-25-16 0 16 0c0-7-5-13-12-15l-22-8 8-22-15-6 15 6c2-7 0-15-6-18l-18-14 15-18 0 0c5-6 5-14 1-20l-12-18 20-12-8-13 8 13c6-3 9-11 7-18l-5-22 24-4-3-15 3 15c7-2 12-8 12-14l4-24z m19-29l-29-4c0 0 0 0-1 0-8-1-16 4-18 13l16 2-15-2-5 29-28 6c0 0-1 0-1 0-8 2-14 10-12 19l0 0 6 27-22 14c-1 0-2 0-2 1-7 4-10 14-5 21l0 0 15 24-17 20c0 0-1 1-1 1-6 7-4 17 2 22l0 0 23 18-10 26c0 0 0 1 0 1-3 8 2 17 10 20l0 0 28 9 1 29c0 0 0 1 0 1 0 9 7 16 16 15l0 0 29-1 9 26c1 0 1 1 1 1 3 8 13 12 20 9l-6-15 6 15 26-11 17 20c0 1 1 1 1 2 6 6 16 6 22 1l-10-12 10 12 21-19 23 13c1 0 1 1 2 1 7 4 17 1 21-6l0 0 14-26 28 5c1 0 1 0 1 0 9 1 17-5 18-13l-15-3 15 3 4-30 28-5c1 0 1 0 1 0 9-2 14-11 12-19l0 0-6-27 23-14c0 0 1-1 2-1 7-5 9-14 4-21l0 0-15-24 17-20c1-1 1-1 2-2 5-6 4-16-3-22l0 1-22-18 9-26c0-1 0-1 0-1 3-8-1-17-9-20l0 0-29-10 0-28c0-1 0-1 0-2-1-8-8-15-17-15l0 0-28 1-10-25c0-1 0-1-1-2-3-8-12-11-20-8l6 14-6-14-26 11-17-20c0-1-1-1-1-2-6-6-16-7-22-1l10 12-10-12-21 19-23-14c0 0-1 0-1 0-8-5-17-2-22 6l0 0-13 25z m337 472l52-51 196 195c7 8 11 17 11 26 0 10-4 19-11 26l0 0c-7 7-16 11-26 11l0 0c-9 0-19-4-26-11l0 0-196-196z m41-85l-74 74 0 0c-6 6-6 16 0 22l0 0 207 207 0 0c13 14 31 20 48 20l0 0c18 0 35-6 48-20l0 0c13-13 20-30 20-48 0-17-7-34-20-48l-207-207 0 0c-6-6-16-6-22 0l0 0z m-189-92c-6-6-6-16 0-22 6-7 16-7 22 0l130 129-22 22-130-129z" horiz-adv-x="1000" />

<glyph glyph-name="4798---fork-and-knife" unicode="&#xe80c;" d="M311 731c-7 5-16 5-22-2-6-6-5-16 1-22l126-110c1-2 4-4 6-7 20-19 27-39 26-58-1-19-11-38-26-55-2-2-4-4-7-7-3-3-5-5-7-7-17-15-36-25-55-26-19-1-38 6-58 26-3 2-5 5-6 7l-111 125c-6 6-16 7-22 1-7-5-7-15-2-22l111-125c3-3 6-6 8-8 27-27 55-37 82-35 27 2 52 15 73 34 4 3 7 6 9 8 3 2 5 5 8 9 19 21 33 46 34 73 2 27-8 56-35 83-2 2-4 4-8 7l-125 111z m238-456l61 62 0 0c7 6 16 6 23 0l0 0 250-251c12-12 18-27 18-42 0-15-6-30-18-42l0 0 0 0c-11-12-27-17-42-17-15 0-30 5-42 17l0 0-251 251 0 0c-6 6-6 16 0 22l1 0z m72 29l-39-40 239-240 0 0c6-5 13-8 20-8 7 0 15 3 20 8l0 0 0 0c6 6 8 13 8 20 0 7-2 14-8 20l-240 240z m-181 163c-6 6-16 6-22 0-6-6-6-16 0-22l57-57c6-6 16-6 22 0 6 6 6 16 0 22l-57 57z m89-89c-6 6-16 6-22 0-6-6-6-16 0-22l71-70c6-7 15-7 22 0 6 6 6 16 0 22l-71 70z m-315 266c-6 6-16 6-22 0-6-6-6-16 0-22l188-187c6-7 16-7 22 0 6 6 6 16 0 22l-188 187z m49 49c-6 6-16 6-22 0-6-6-6-16 0-22l187-188c7-6 16-6 23 0 6 7 6 16 0 23l-188 187z m-114-696c63 4 134 41 196 94 76 65 138 154 153 234l15-3-15 3c0 2 1 3 2 5l-2-1c0 0 0 0 0 0-1 10-2 26 3 40 7 17 22 30 52 21 22 24 65 70 110 118 57 60 117 125 142 153-2 8-5 14-10 19-5 4-12 7-20 9-83-93-203-225-322-356-110-122-221-244-304-336z m216 70c-78-66-171-110-250-100-4 0-7 1-10 4-7 5-7 15-1 22l0 0c83 93 204 227 326 361 121 133 242 266 326 361 3 3 8 6 13 5l0 0c20 0 35-7 47-17 11-11 18-25 22-43 1-4 0-10-4-14l0 0c-20-23-86-93-148-160-51-54-99-105-115-123-4-6-12-8-19-6l0 0c-15 6-20 4-22 0-2-7-1-18-1-25 0-6 1-10-1-15-17-86-82-181-163-250z m135 263c0 1 2 2 3 4 1 1-4-4-5-5l2 1z" horiz-adv-x="1000" />

<glyph glyph-name="4799---spoon-and-knife" unicode="&#xe80d;" d="M293 721c-6 6-16 5-22-1-5-7-5-17 2-22l125-111c2-2 4-4 7-6 19-20 27-40 25-58-1-20-11-38-26-55-1-2-4-5-7-7-2-3-5-6-7-7-17-15-35-25-55-27-18-1-38 7-58 26-2 3-4 5-6 7l-111 125c-6 7-15 7-22 2-6-6-7-16-1-22l111-126c2-3 5-6 7-8 27-27 55-36 82-35 27 2 52 15 74 34 3 3 6 6 8 8 3 3 6 6 9 9 19 22 32 47 34 74 1 27-8 55-35 82-2 2-5 4-8 7l-126 111z m270-322c6 6 6 16 0 22-6 6-16 6-22 0l-52-52-71-71c-6-6-6-16 0-22 6-6 16-6 22 0l71 71 52 52z m-32-134l62 62 0 0c6 6 16 6 22 0l0 0 251-251c11-11 17-26 17-42 0-15-6-30-17-42l0 0 0 0c-12-11-27-17-42-17-16 0-31 6-43 17l0 0-250 251 0 0c-6 6-6 16 0 22l0 0z m73 29l-40-40 240-240 0 0c5-5 12-8 20-8 7 0 14 3 19 8l0 0 0 0c6 6 9 13 9 20 0 8-3 15-9 20l-239 240z m-182 164c-6 6-16 6-22 0-6-6-6-16 0-22l89-89 71-71c6-6 16-6 22 0 6 6 6 16 0 22l-71 71-89 89z m14-204l-40 40-239-240c-6-5-9-12-9-20 0-7 3-14 9-20l0 0 0 0c5-5 12-8 20-8 7 0 14 3 20 8l0 0 239 240z m-29 73l62-62 0 0c6-6 6-16 0-22l0 0-250-251 0 0c-12-11-27-17-42-17-16 0-31 6-42 17l0 0 0 0c-12 12-18 27-18 42 0 16 6 31 18 42l250 251 0 0c6 6 16 6 22 0l0 0z m-211 308c-6 6-16 6-22 0-6-6-6-16 0-22l188-188c6-6 16-6 22 0 6 6 6 16 0 22l-188 188z m49 49c-6 6-16 6-22 0-6-6-6-16 0-22l188-188c6-6 16-6 22 0 6 6 6 16 0 22l-188 188z m553-28c-24 23-57 32-93 27-38-5-77-24-109-57l0 0c-33-32-52-72-57-109-5-36 4-70 27-93l0 0c23-23 57-32 93-27 37 5 77 24 109 57 33 32 52 72 57 109 5 36-4 69-27 93z m-97 58c45 6 88-6 119-36 30-31 42-74 36-119-6-44-28-90-66-128-37-37-83-59-127-65-45-6-89 5-119 36l0 0c-31 30-42 74-36 119 6 44 28 90 65 127l0 0c38 38 84 60 128 66z" horiz-adv-x="1000" />

<glyph glyph-name="4800---cutlery" unicode="&#xe80e;" d="M448 723c34 0 64-18 86-46 21-27 34-65 34-105 0-41-13-78-34-106-22-28-52-45-86-45-34 0-64 17-86 45-21 28-33 65-33 106 0 40 12 78 33 105 22 28 52 46 86 46z m61-65c-16 21-37 33-61 33-24 0-45-12-61-33-17-22-27-53-27-86 0-34 10-65 27-87 16-20 37-33 61-33 24 0 45 13 61 33 17 22 27 53 27 87 0 33-10 64-27 86z m-92-371l62 0c9 0 16-7 16-16l0-252c0-12-5-24-14-33-8-8-20-13-33-13-13 0-25 5-33 13-8 9-14 21-14 33l0 252c0 9 7 16 16 16z m47-31l-31 0 0-237c0-4 1-8 4-11 3-2 7-4 11-4 4 0 8 2 11 4 3 3 5 7 5 11l0 237z m0 178c0 8-7 15-16 15-9 0-16-7-16-15l0-161c0-8 7-15 16-15 9 0 16 7 16 15l0 161z m345 272c0 9-8 15-16 15-9-1-15-8-15-17l8-131c0-2 1-5 1-7 0-21-7-36-17-45-11-9-26-14-43-15-3 0-5 0-8 0-3 0-6 0-8 0-17 1-32 6-43 15-10 9-17 24-17 45 0 2 0 5 0 7l8 131c1 9-6 16-14 17-9 0-16-6-17-15l-8-131c0-4 0-7 0-9 0-31 10-53 27-68 17-15 39-21 62-23 4 0 7 0 10 0 3 0 6 0 9 0 24 2 46 8 62 23 17 15 28 37 28 68 0 2 0 5-1 9l-8 131z m-125-383l69 0c9 0 16-7 16-16l0-279c0-14-6-27-15-36-9-9-21-15-35-15-14 0-27 6-36 15-9 9-14 22-14 36l0 279c0 9 7 16 15 16z m54-32l-38 0 0-263c0-6 2-10 5-14 4-3 9-5 14-5 5 0 10 2 13 5 4 4 6 8 6 14l0 263z m-4 196c0 9-7 16-15 16-9 0-16-7-16-16l0-178c0-8 7-15 16-15 8 0 15 7 15 15l0 178z m-27 225c0 8-7 15-15 15-9 0-16-7-16-15l0-209c0-9 7-16 16-16 8 0 15 7 15 16l0 209z m55 0c0 8-7 15-16 15-9 0-16-7-16-15l0-209c0-9 7-16 16-16 9 0 16 7 16 16l0 209z m-548-684c30 35 50 91 59 150 10 78 0 161-32 216l13 8-13-8c-1 1-1 1-2 2l0-1c0 0 0 0 0 0-6 6-15 15-20 27-5 15-3 31 20 43 0 25 0 69 0 113 0 38 0 81 1 114-5 3-9 4-13 4l0 16-1-16c0 0 0 0 0 0-4 0-8-1-12-4l0-664z m89 146c-11-81-43-156-95-193 3 3 6 7 6 12l-16 0 9-13c0 0 1 1 1 1-3-2-6-4-10-4-9 0-16 7-16 16l0 707 0 0c0 5 2 9 6 12l0 0c12 11 25 15 38 15 0 0 1 0 1 0l0 0 0 0 0 0c13 0 25-5 37-14 4-2 7-7 7-13 0-11 0-62-1-122 0-49 0-99 0-122 0-7-4-14-10-16l-6 14 6-14c-10-4-12-6-11-8 1-4 8-10 11-14 4-4 7-6 8-10 36-61 47-151 35-234z m-64 222c0 1 0 1 0 2 0-1 0-2 0-3l0 1z" horiz-adv-x="1000" />

<glyph glyph-name="4801---chinese-sticks" unicode="&#xe80f;" d="M144-20l98 76 624 623c6 6 6 16 0 22-6 6-16 6-22 0l-626-626-74-95z m726 0l-98 76-623 623c-6 6-6 16 0 22 6 6 16 6 22 0l626-626 73-95z" horiz-adv-x="1000" />

<glyph glyph-name="4802---spatulas" unicode="&#xe810;" d="M272 692c40 0 77-17 103-43 27-27 43-63 43-104 0-81-66-146-146-146-41 0-78 16-104 43-27 26-43 63-43 103 0 41 16 77 43 104 26 26 63 43 104 43z m81-65c-21 21-50 33-81 33-32 0-61-12-82-33-21-21-34-50-34-82 0-32 13-60 34-81 21-21 50-34 82-34 63 0 115 52 115 115 0 32-13 61-34 82z m-81 16l-1 0 0 0 0 0-1 0 0 0-1 0 0 0c-7 0-10-9-5-14 1-1 3-2 5-2l0 0 1 0 0 0 1 0 1 0 0 0 1 0 0 0 1 0 0 0 1 0 0 0 1 0 0 0 1 0 0 0 1 0 0 0 1 0 0 0 1 0 0 0 1 0 0 0 1 0 1 0 0-1 1 0 0 0 1 0 0 0 1 0 0 0c4-1 8 2 9 6 1 4-2 9-7 9l0 0 0 1-1 0-1 0 0 0-1 0 0 0-1 0-1 0 0 0-1 0 0 0-1 0-1 1 0 0-1 0-1 0 0 0-1 0 0 0-1 0-1 0 0 0-1 0-1 0 0 0-1 0 0 0z m-43-28c2 2 4 5 3 7 0 6-6 10-11 7l-1-1 0 0-1 0 0 0-1-1 0 0-1 0 0-1-1 0 0 0-1-1 0 0-1 0 0-1 0 0-1-1 0 0-1 0 0-1-1 0 0 0-1-1 0 0-1 0 0-1-1 0 0-1 0 0-1 0 0-1c-5-4-2-13 5-13 2 0 4 0 5 2l0 0 1 0 0 1 1 0 0 0 0 1 1 0 0 0 0 0 1 1 0 0 1 0 0 1 0 0 1 0 0 1 1 0 0 0 0 0 1 1 0 0 1 0 0 1 0 0 1 0 0 0 1 1 0 0 1 0 0 0z m-35-43c2 6-5 12-11 9-2-1-3-2-4-4l0 0 0-1 0-1-1 0 0-1 0 0 0-1 0 0 0-1-1-1 0 0 0-1 0 0 0-1 0-1-1 0 0-1 0 0 0-1 0-1 0 0 0-1 0 0-1-1 0-1 0 0 0-1 0 0 0-1c-1-3 1-6 4-8 4-3 11 0 11 6l0 0 1 1 0 0 0 1 0 0 0 1 0 0 0 1 0 0 0 1 0 0 1 1 0 0 0 1 0 0 0 1 0 0 0 1 0 0 1 1 0 0 0 1 0 0 0 1 0 0 0 1 1 0 0 1 0 0z m1-56c-3 6-12 6-15 0 0-2 0-4 0-6l0 0 1-1 0 0 0-1 0 0 1-1 0 0 0-1 0 0 0-1 1-1 0 0 0-1 0 0 1-1 0 0 0-1 1 0 0-1 0 0 0-1 1 0 0-1 0 0 0-1 1 0 0-1 0 0 1-1 0 0c1-3 4-4 7-4 6 1 9 7 6 12l0 0 0 0 0 1-1 0 0 1 0 0 0 1-1 0 0 1 0 0 0 0-1 1 0 0 0 1 0 0 0 1-1 0 0 1 0 0 0 0-1 1 0 0 0 1 0 0 0 1 0 0-1 1 0 0 0 1 0 0z m37-43c-7 4-14-2-12-9 1-2 2-3 4-4l0 0 1-1 0 0 1 0 1-1 0 0 1 0 0 0 1-1 0 0 1 0 0 0 1-1 0 0 1 0 0 0 1-1 1 0 0 0 1 0 0-1 1 0 0 0 1 0 0 0 1-1 1 0 0 0 1 0c3-1 6 0 8 2 4 4 2 11-3 13l-1 0 0 0-1 0 0 0-1 0 0 1-1 0 0 0 0 0-1 0 0 1-1 0 0 0-1 0 0 0-1 1 0 0-1 0 0 0 0 0-1 1 0 0-1 0 0 0-1 1 0 0-1 0 0 0 0 0z m55-8c-7-2-9-11-3-15 2-1 4-1 6-1l0 0 1 0 0 0 1 1 0 0 1 0 1 0 0 0 1 0 0 0 1 1 1 0 0 0 1 0 0 0 1 0 0 1 1 0 1 0 0 0 1 0 0 0 1 1 0 0 1 0 1 0 0 0 1 1 0 0c3 1 5 3 5 6 1 6-5 10-10 8l-1 0 0 0-1 0 0 0-1 0 0-1-1 0 0 0-1 0 0 0-1 0 0 0 0-1-1 0 0 0-1 0 0 0-1 0 0 0-1-1 0 0-1 0 0 0-1 0 0 0-1 0 0 0-1 0 0 0z m48 28c-2-2-2-5-1-8 2-5 9-7 13-2l-12 10z m12-10l0 0 1 1 0 0 0 1 1 0 0 1 0 0 1 1 0 0 1 1 0 0 0 1 1 0 0 1 0 0 1 1 0 0 0 1 1 0 0 1 0 0 0 1 1 0 0 1 0 0 1 1 0 0 0 1 1 0 0 0c3 6-3 13-9 11-2 0-4-1-5-3l0 0 14-8m-14 8l0-1 0 0-1-1 0 0 0 0-1-1 0 0 0-1 0 0-1 0 0-1 0 0 0-1-1 0 0-1 0 0-1 0 0-1 0 0 0-1-1 0 0 0 0-1-1 0 0 0 0-1 0 0-1-1 0 0m19 53c0-7 8-11 13-6 1 2 2 4 2 6l0 0 0 1 0 1 0 0 0 1 0 1 0 0 0 1 0 0 0 1 0 1 0 0 0 1 0 1 0 0 0 1 0 0 0 1-1 1 0 0 0 1 0 0 0 1 0 1 0 0 0 1 0 0 0 1c-2 7-10 8-14 3-2-2-2-4-2-6l0 0 0-1 1 0 0-1 0 0 0-1 0 0 0-1 0 0 0-1 0 0 0-1 0 0 0-1 0 0 0-1 0 0 0-1 0-1 0 0 1-1 0 0 0-1 0 0 0-1 0 0 0-1 0 0z m-20 52c5-5 14-2 14 5 0 2-1 4-2 5l-12-10z m12 10l0 1-1 0 0 1 0 0-1 0 0 1-1 0 0 1 0 0-1 1 0 0-1 0 0 1 0 0-1 1 0 0-1 1 0 0 0 0-1 1 0 0-1 1 0 0-1 0 0 1-1 0 0 0 0 1-1 0 0 0c-3 3-8 3-11-1-3-3-2-8 1-11l0 0 10 12m-10-12l1 0 0 0 0-1 1 0 0 0 0-1 1 0 0 0 0-1 1 0 0 0 1-1 0 0 0 0 1-1 0 0 0 0 1-1 0 0 0-1 1 0 0 0 0-1 1 0 0 0 0-1 1 0 0 0 0-1m-69 8c-3-1-6-3-6-6-2-5 2-10 8-10l0 0 0 0 0 0 1 0 0 0 0 0 1 0 0 0 0 0 0 0 1 0 0 0 0 0 1 0 0 0 0 0 1 0 0 0 0 0 0 0 1 0 0 0 0 0 1 0 0 0 0 0 0 0 1 0 0 0 0 0 1 0 0 0 0 0 0 0 1 0 0 0 0 0 1 0 0 0 0 0 0 0 1 0 0 0 0 0 1 0 0 0 0 0 0 0 1 0 0 0 0-1 0 0 1 0 0 0 0 0 1 0 0 0 0 0 0 0 1 0 0 0 0 0 0 0 1 0c6-2 12 4 9 10-1 2-3 4-5 5l0 0 0 0-1 0 0 0-1 0 0 0 0 0-1 0 0 0 0 0-1 1 0 0 0 0-1 0 0 0-1 0 0 0 0 0-1 0 0 0 0 0-1 0 0 0-1 0 0 1 0 0-1 0 0 0 0 0-1 0 0 0-1 0 0 0 0 0-1 0 0 0-1 0 0 0 0 0-1 0 0 0 0 0-1 0 0 0-1 0 0 0 0 0-1 0 0 0-1 0 0 0 0 0-1 0 0 0-1 0 0 0 0 0-1 0 0 0-1 0 0 0 0 0-1 0 0 0z m-22-26c5 4 2 13-4 14-3 0-5-1-6-2-5-4-9-8-12-13-4-6 0-13 7-12 2 0 4 1 6 3 2 4 5 7 9 10z m-17-35c0 4-3 7-7 8-5 0-8-3-8-8l0 0 0-1 0 0 0 0 0-1 0 0 0-1 0 0 0 0 0-1 0 0 0 0 0-1 0 0 0-1 0 0 0 0 0-1 0 0 0-1 0 0 0 0 0-1 0 0 0 0 0-1 1 0 0-1 0 0 0 0 0-1 0 0 0 0 0-1 0 0 0-1 0 0 0 0 0-1 1 0 0 0 0-1 0 0 0 0 0-1 0 0 0-1 0 0c1-2 3-4 6-5 6-1 11 4 9 10l0 0 0 0 0 1 0 0 0 0 0 0 0 1 0 0 0 0 0 0-1 1 0 0 0 0 0 1 0 0 0 0 0 0 0 1 0 0 0 0 0 0 0 1 0 0 0 0 0 1 0 0 0 0 0 0 0 1 0 0 0 0-1 1 0 0 0 0 0 0 0 1 0 0 0 0 0 1 0 0 0 0 0 0 0 1 0 0 0 0 0 1 0 0 0 0z m17-35c-2 2-4 2-7 2-6-2-8-10-3-14 5-4 10-7 15-9 3-1 6-1 9 1 4 4 3 11-3 13-4 2-8 4-11 7z m37-9c-6-2-8-11-2-14 2-2 4-2 6-2l0 1 0 0 1 0 0 0 0 0 1 0 0 0 0 0 1 0 0 0 0 0 1 1 0 0 1 0 0 0 0 0 1 0 0 0 0 0 1 0 0 0 0 1 1 0 0 0 0 0 1 0 0 0 1 0 0 1 0 0 1 0 0 0 0 0 1 0 0 0 0 1 1 0 0 0 0 0 1 0 0 0 0 0 1 1 0 0 0 0 1 0 0 0 0 0 0 1c3 1 5 4 5 7-1 5-7 9-12 6l0 0 0 0-1 0 0 0 0 0 0 0-1-1 0 0 0 0 0 0-1 0 0 0 0 0 0 0-1 0 0-1 0 0 0 0-1 0 0 0 0 0 0 0-1 0 0 0 0 0 0-1-1 0 0 0 0 0 0 0-1 0 0 0 0 0-1 0 0 0 0 0 0 0-1-1 0 0 0 0 0 0-1 0 0 0 0 0-1 0 0 0 0 0 0 0-1 0z m32 23c-4-6 2-13 9-11 2 0 3 2 4 4l0 0 1 0 0 0 0 1 0 0 0 0 0 1 1 0 0 0 0 1 0 0 0 0 0 1 1 0 0 0 0 1 0 0 0 1 0 0 0 0 0 1 1 0 0 0 0 1 0 0 0 0 0 1 0 0 0 0 1 1 0 0 0 0 0 1 0 0 0 1 0 0 0 0 0 1 1 0 0 0 0 1 0 0 0 0 0 1 0 0 0 1 0 0 0 0 0 0c2 7-6 12-12 8-2-1-3-3-3-5l0 0 0 0 0 0 0 0 0-1 0 0 0 0 0-1-1 0 0 0 0 0 0-1 0 0 0 0 0 0 0-1 0 0 0 0 0-1 0 0 0 0-1 0 0-1 0 0 0 0 0 0 0-1 0 0 0 0 0 0 0-1-1 0 0 0 0 0 0-1 0 0 0 0 0 0 0-1 0 0-1 0 0 0 0-1 0 0 0 0 0 0 0-1 0 0 0 0z m1 39c2-4 5-6 9-5 5 1 8 6 6 11l0 0 0 0-1 1 0 0 0 0 0 1 0 0 0 0-1 1 0 0 0 0 0 1 0 0 0 0-1 1 0 0 0 0 0 1 0 0 0 0-1 1 0 0 0 0 0 0 0 1-1 0 0 0 0 1 0 0 0 0-1 1 0 0 0 0 0 1 0 0-1 0 0 0 0 1 0 0 0 0-1 1 0 0 0 0 0 1-1 0 0 0 0 0 0 1 0 0c-5 5-14 3-14-5 0-2 0-3 2-5l0 0 0 0 0-1 0 0 0 0 1 0 0 0 0-1 0 0 0 0 0 0 0-1 1 0 0 0 0 0 0 0 0-1 0 0 1 0 0 0 0-1 0 0 0 0 0 0 0-1 1 0 0 0 0 0 0-1 0 0 0 0 0 0 0 0 1-1 0 0 0 0 0 0 0-1 0 0 0 0 0 0 1-1 0 0 0 0 0 0 0-1 0 0 0 0 0 0z m-41 8c-2 0-4 0-5-1m3-14c0 0 1 0 2 0 3 0 5-1 8-4 1-2 4-3 6-2-2-2-4-4-4-6 0-3-2-6-4-8-3-1-4-3-4-6 0 1 0 1-1 2-1 1-2 2-4 3l0 0-4-15c-7 2-13 6-17 13m14 7c1-2 4-4 7-5m-4-15c5-2 10 2 10 7 1-2 3-4 5-5 2 0 5 0 6 2 7 4 11 11 12 18 0 3-2 6-4 8-2 1-3 1-5 1 2 1 4 3 4 6 0 2 0 4-2 6-5 5-12 8-19 8m-10-31c-1 2-3 4-5 4 2 1 4 3 5 5 1 3 3 5 6 6 0 0 1 1 2 1 0 0 0 0 0 0 1 2 2 3 3 5 0 3-1 5-2 6 0 1-1 2-2 2-1 1-1 1-2 1-1 0-3 0-5 0-7-3-12-8-15-15-1-3 0-6 2-9 1-1 2-2 4-2-5-1-7-7-5-11l14 7z m6 15l-1 2 0 0 0 0 1-2z m-24-262l55 0c9 0 16-7 16-16 0-1 0-1 0-1l0-224 0 0c0-12-5-23-13-31-8-8-18-13-30-13l0 0c-12 0-23 5-31 13-8 8-13 19-13 31l0 225c0 9 7 16 16 16z m40-32l-25 0 0-209c0-3 2-7 4-9 2-2 5-3 9-3l0 0c3 0 6 1 8 3 2 2 4 6 4 9l0 0 0 209z m3 149c0 8-7 15-15 15-9 0-16-7-16-15l0-131c0-9 7-16 16-16 8 0 15 7 15 16l0 131z m270 7c0 9-7 16-16 16-8 0-15-7-15-16l0-140c0-8 7-15 15-15 9 0 16 7 16 15l0 140z m-85 267l138 0c10 0 20-4 27-11 6-7 11-16 11-27l0-195c0-11-5-19-13-25-5-5-12-9-20-11-25-9-49-14-74-13-25 0-50 4-74 13-7 2-14 6-20 11-7 6-12 14-12 25l0 195c0 11 4 20 11 27 7 7 16 11 26 11z m138-31l-138 0c-1 0-3-1-4-2-1-1-2-3-2-5l0-195c0 0 1-1 1-2 3-2 6-3 10-5 22-7 43-11 64-11 21 0 42 3 64 11 4 2 8 3 10 5 1 1 1 2 1 2l0 195c0 2 0 4-2 5-1 1-2 2-4 2z m-79-22c0 5-4 8-8 8-4 0-8-3-8-8l0-177c0-5 4-8 8-8 4 0 8 3 8 8l0 177z m36 0c0 5-3 8-8 8-4 0-8-3-8-8l0-177c0-5 4-8 8-8 5 0 8 3 8 8l0 177z m36 0c0 5-3 8-8 8-4 0-7-3-7-8l0-161c0-4 3-8 7-8 5 0 8 4 8 8l0 161z m-108 0c0 5-4 8-8 8-4 0-8-3-8-8l0-161c0-4 4-8 8-8 4 0 8 4 8 8l0 161z m18-338l56 0c9 0 16-7 16-16l0-225c0-12-5-23-13-31-8-8-19-13-31-13l0 0c-12 0-23 5-30 13-8 8-13 19-13 31l0 0 0 225 0 0c0 9 7 16 15 16l0 0z m40-32l-24 0 0-209 0 0c0-3 1-7 4-9 2-2 5-3 8-3l0 0c4 0 7 1 9 3 2 2 3 6 3 9l0 209z m231 156c0 9-7 16-15 16-9 0-16-7-16-16l0-140c0-8 7-15 16-15 8 0 15 7 15 15l0 140z m-84 267l138 0c10 0 19-4 26-11 7-7 11-16 11-27l0-195c0-11-5-19-12-25-6-5-13-9-20-11-25-9-50-14-75-13-25 0-49 4-73 13-8 2-15 6-21 11-7 6-12 14-12 25l0 195c0 11 5 20 11 27 7 7 16 11 27 11z m138-31l-138 0c-2 0-3-1-5-2-1-1-1-3-1-5l0-195c0 0 0-1 1-2 2-2 6-3 10-5 21-7 42-11 63-11 21 0 43 3 64 11 4 2 8 3 11 5 0 1 1 2 1 2l0 195c0 2-1 4-2 5-1 1-3 2-4 2z m-80-22c0 7-8 11-13 6-1-1-2-3-2-6l0-15c0-7 8-11 13-6 1 1 2 4 2 6l0 15z m-15-156c0-7 8-10 13-6 1 2 2 4 2 6l0 16c0 6-8 10-13 6-1-2-2-4-2-6l0-16z m0 47c0-7 8-10 13-6 1 2 2 4 2 6l0 16c0 6-8 10-13 5-1-1-2-3-2-5l0-16z m0 47c0-7 8-10 13-6 1 2 2 4 2 6l0 15c0 7-8 11-13 6-1-1-2-3-2-6l0-15z m52 62c0 7-8 11-13 6-2-1-3-3-3-6l0-15c0-7 8-11 13-6 2 1 3 4 3 6l0 15z m-16-156c0-7 8-10 13-6 2 2 3 4 3 6l0 16c0 6-8 10-13 6-2-2-3-4-3-6l0-16z m0 47c0-7 8-10 13-6 2 2 3 4 3 6l0 16c0 6-8 10-13 5-2-1-3-3-3-5l0-16z m0 47c0-7 8-10 13-6 2 2 3 4 3 6l0 15c0 7-8 11-13 6-2-1-3-3-3-6l0-15z m52 62c0 7-8 11-13 6-2-1-3-4-3-6l0-15c0-7 8-11 13-6 2 2 3 4 3 6l0 15z m-16-156c0-7 8-10 13-6 2 2 3 4 3 6l0 16c0 7-8 10-13 5-2-1-3-3-3-5l0-16z m0 47c0-7 8-10 13-6 2 2 3 4 3 6l0 16c0 6-8 10-13 5-2-1-3-3-3-5l0-16z m0 47c0-7 8-11 13-6 2 2 3 4 3 6l0 15c0 7-8 11-13 6-2-1-3-3-3-6l0-15z m-93 62c0 7-8 11-13 6-1-1-2-3-2-6l0-15c0-7 8-11 13-6 1 1 2 4 2 6l0 15z m-15-156c0-7 8-10 13-6 1 2 2 4 2 6l0 16c0 6-8 10-13 6-1-2-2-4-2-6l0-16z m0 47c0-7 8-10 13-6 1 2 2 4 2 6l0 16c0 6-8 10-13 5-1-1-2-3-2-5l0-16z m0 47c0-7 8-10 13-6 1 2 2 4 2 6l0 15c0 7-8 11-13 6-1-1-2-3-2-6l0-15z m34-276l56 0c8 0 15-7 15-16l0-225c0-12-5-23-13-31-7-8-18-13-30-13l0 0c-12 0-23 5-31 13-8 8-13 19-13 31l0 225c0 9 7 16 16 16z m40-32l-24 0 0-209c0-3 1-7 3-9 2-2 5-3 9-3l0 0c3 0 6 1 8 3 2 2 4 6 4 9l0 209z" horiz-adv-x="1000" />

<glyph glyph-name="4803---knives" unicode="&#xe811;" d="M633 382c1 3 1 5 2 8 1 6 1 13 2 19l11-1-11 1c0 0 0 1 0 2l-1 0c0 0 0 0 0 0-1 6-4 15-2 24 3 13 11 22 31 20 9 15 28 44 47 74 20 31 39 60 48 74-2 4-4 7-7 8-3 2-6 3-11 3l-140-219 31-13z m25 4c-1-7-3-15-5-22 0-1 0-2-1-2-2-6-9-9-15-7l0 0-56 24c-1 0-1 0-2 1-6 3-7 11-4 16l0 0 150 235c2 3 5 6 9 6l2-11-2 11c13 2 23-1 32-6 8-6 14-14 18-24 1-4 1-8-1-11l0 0c-12-19-32-50-51-80-20-30-40-62-51-79-3-5-8-7-13-6l0 0c-8 2-11 1-11 0-1-4 1-11 2-15 1-4 1-7 1-10 0-6-1-13-2-20z m-21 25c0 0 0 1 0 2 0-1-1-2-1-2l1 0z m-105 13c4 9 6 19 9 28 2 12 4 24 4 35l12 0-12 0c0 1 1 2 1 3l-1 0c0 0 0 0 0 0-2 6-4 17-2 26 3 13 11 23 33 21 10 17 31 49 52 81 22 35 43 66 52 82-2 4-5 8-8 10-3 2-7 3-12 3l-173-270 45-19z m31 22c-3-13-7-27-13-41 0 0 0-1 0-1-3-6-10-9-16-6l0 0-68 28c-1 1-2 1-3 2-5 3-7 10-3 16l0 0 182 286c2 3 6 6 10 6l1-11-1 11c13 2 24-1 33-7 9-5 15-14 19-25 2-4 2-8-1-12l0 0c-12-19-34-54-55-86-22-34-45-69-56-87-3-5-8-7-13-6l0 0c-10 2-13 1-13-2-1-4 1-11 2-16 1-4 1-7 1-10-1-13-3-26-6-39z m-17 44c0 1 0 2 1 3-1-2-2-3-2-3l1 0z m2 4l0 0c0 0 0 0 0 0z m179-152c0 4 0 7 1 11 2 22 5 44 25 50 7 12 22 35 38 59 15 24 29 46 37 57-2 2-3 4-4 5-2 1-4 2-6 2l-112-175 21-9z m24 8c-1-9-2-18-4-26 0-1-1-2-1-2-2-6-9-9-15-7l0 0-46 19c-1 1-2 1-2 2-6 3-7 10-4 16l0 0 122 191c2 3 5 5 9 6l1-12-1 12c11 1 19-1 27-6 6-4 11-11 14-20 2-3 2-7 0-11l0 0c-10-15-26-40-41-62-15-24-31-49-40-63-2-4-5-6-9-6l-1 11 1-11c-7-1-8-16-10-31z m8-47l-330 138-244-450 386 0 188 312z m-331 172l359-150c1 0 2-1 3-1 8-5 10-14 5-22l0 0-201-334c-3-5-8-9-14-9l-421 0c-2 0-5 1-7 2-8 4-11 14-6 21l0 0 261 486c4 7 13 11 21 7l0 0z" horiz-adv-x="1000" />

<glyph glyph-name="4804---cutlery-and-plate" unicode="&#xe812;" d="M293 721c-6 6-16 5-22-1-5-7-5-17 2-22l125-111c2-2 4-4 7-6 19-20 27-40 25-58-1-20-11-38-26-55-1-2-4-5-7-7-2-3-5-6-7-7-17-15-35-25-55-27-18-1-38 7-58 26-2 3-4 5-6 7l-111 125c-6 7-15 7-22 2-6-6-7-16-1-22l111-126c2-3 5-6 7-8 27-27 55-36 82-35 27 2 52 15 74 34 3 3 6 6 8 8 3 3 6 6 9 9 19 22 32 47 34 74 1 27-8 55-35 82-2 2-5 4-8 7l-126 111z m238-456l62 62 0 0c6 6 16 6 22 0l0 0 251-251c11-11 17-26 17-42 0-15-6-30-17-42l0 0 0 0c-12-11-27-17-42-17-16 0-31 6-43 17l0 0-250 251 0 0c-6 6-6 16 0 22l0 0z m73 29l-40-40 240-240 0 0c5-5 12-8 20-8 7 0 14 3 19 8l0 0 0 0c6 6 9 13 9 20 0 8-3 15-9 20l-239 240z m-182 164c-6 6-16 6-22 0-6-6-6-16 0-22l89-89 71-71c6-6 16-6 22 0 6 6 6 16 0 22l-71 71-89 89z m141-59c6 6 6 16 0 22-6 6-16 6-22 0l-52-52-71-71c-6-6-6-16 0-22 6-6 16-6 22 0l71 71 52 52z m-367 236c-6 6-16 6-22 0-6-6-6-16 0-22l188-188c6-6 16-6 22 0 6 6 6 16 0 22l-188 188z m49 49c-6 6-16 6-22 0-6-6-6-16 0-22l188-188c6-6 16-6 22 0 6 6 6 16 0 22l-188 188z m608-148c-4 7-14 10-21 6-8-4-11-13-7-21 14-26 24-54 32-83 7-28 10-57 10-88 0-40-6-79-19-116-12-37-30-73-54-104-5-7-4-17 3-22 7-5 17-4 22 3 26 34 46 73 59 113 13 41 20 83 20 126 0 33-4 65-11 96-8 31-19 61-34 90z m-671-425c5-7 15-9 22-4 6 6 8 15 3 22-24 32-43 67-55 105-13 36-19 75-19 116 0 101 41 193 107 260 67 66 159 107 260 107 28 0 56-3 82-9 27-6 53-15 78-27 7-4 17-1 21 7 3 8 0 17-8 21-26 13-55 23-84 29-29 7-59 10-89 10-110 0-210-44-282-116-72-72-116-172-116-282 0-44 7-86 20-126 14-41 34-80 60-113z m565-74c7 6 8 15 2 22-5 7-15 8-21 3-33-26-69-46-107-59-39-13-80-20-121-20-43 0-83 7-121 20-40 14-76 34-108 60-7 5-16 4-22-3-5-6-4-16 3-22 34-27 74-49 117-64 41-15 85-22 131-22 45 0 89 7 131 22 41 14 81 36 116 63z m-77 340c-1 5-5 8-9 7-4-1-7-5-7-9 1-4 1-8 2-12 0-5 0-9 0-13 0-12-1-24-4-36-3-12-7-23-12-34-2-4 0-8 3-10 4-2 9-1 11 3 6 12 10 25 13 38 3 12 5 26 5 39 0 5 0 9-1 14 0 4-1 9-1 13z m-230 134c-4-2-6-6-5-10 2-4 6-6 10-5 9 4 18 6 27 8 9 1 18 2 28 2 4 0 8 0 11 0 4 0 7-1 11-1 4-1 8 2 9 6 0 5-3 9-7 9-4 1-8 1-12 1-4 1-8 1-12 1-10 0-21-1-31-3-10-2-20-4-29-8z m-95-235c2-4 7-6 10-4 4 2 6 7 4 10-5 11-9 22-11 33-3 11-4 23-4 35 0 9 1 18 2 27 2 8 4 17 7 25 1 4-1 9-5 10-4 2-9 0-10-5-3-9-6-18-7-28-2-9-3-19-3-29 0-13 2-26 4-38 3-13 8-25 13-36z m242-74c4 2 5 7 3 11-2 3-7 5-11 2-11-7-24-12-38-16-13-3-27-5-41-5-15 0-29 2-43 6-14 4-27 9-39 17-3 2-8 1-11-3-2-3-1-8 3-10 13-9 28-15 43-19 15-5 31-7 47-7 16 0 31 2 45 6 15 4 29 10 42 18z m-151 52l-40 40-239-240c-6-5-9-12-9-20 0-7 3-14 9-20l0 0 0 0c5-5 12-8 20-8 7 0 14 3 20 8l0 0 239 240z m-29 73l62-62 0 0c6-6 6-16 0-22l0 0-250-251 0 0c-12-11-27-17-42-17-16 0-31 6-42 17l0 0 0 0c-12 12-18 27-18 42 0 16 6 31 18 42l250 251 0 0c6 6 16 6 22 0l0 0z m391 329c-24 23-57 32-93 27-38-5-77-24-109-57l0 0c-33-32-52-72-57-109-5-36 4-70 27-93l0 0c23-23 57-32 93-27 37 5 77 24 109 57 33 32 52 72 57 109 5 36-4 69-27 93z m-97 58c45 6 88-6 119-36 30-31 42-74 36-119-6-44-28-90-66-128-37-37-83-59-127-65-45-6-89 5-119 36l0 0c-31 30-42 74-36 119 6 44 28 90 65 127l0 0c38 38 84 60 128 66z" horiz-adv-x="1000" />

<glyph glyph-name="4805---two-course-meal" unicode="&#xe813;" d="M198 563c24 0 46-13 61-33 15-19 24-45 24-74 0-29-9-55-24-75-15-20-37-32-61-32-24 0-45 12-61 32-15 20-24 46-24 75 0 29 9 55 24 74 16 20 37 33 61 33z m42-47c-11 14-26 23-42 23-16 0-31-9-42-23-12-15-19-37-19-60 0-24 7-45 19-60 11-15 26-24 42-24 16 0 31 9 42 24 12 15 19 36 19 60 0 23-7 45-19 60z m-64-260l44 0c6 0 12-5 12-11l0-177c0-10-4-18-10-24-6-6-15-10-24-10l0 0c-9 0-18 4-24 10-6 6-10 14-10 24l0 177c0 6 6 11 12 11z m32-23l-20 0 0-165c0-3 1-6 3-8 2-1 4-3 7-3l0 0c3 0 5 2 7 3 2 2 3 5 3 8l0 165z m2 120c0 6-5 11-12 11-6 0-12-5-12-11l0-107c0-6 6-12 12-12 7 0 12 6 12 12l0 107z m671 197c-1 7-6 12-13 11-6 0-11-5-11-12l6-92c0-2 0-4 0-5 0-15-4-25-11-31-8-7-18-10-30-10-2-1-3-1-6-1-2 0-3 0-5 1-12 0-22 3-30 10-7 6-11 16-11 31l0 0c0 1 0 3 0 5l5 92c1 7-4 12-11 12-6 1-12-4-12-11l-6-92c0-2 0-5 0-6l0 0c0-22 8-38 20-49 11-10 27-15 44-16 2 0 4 0 6 0 2 0 5 0 7 0 17 1 32 6 44 16 12 11 20 27 20 49 0 1 0 4 0 6l-6 92z m-89-268l49 0c6 0 11-6 11-12l0-197c0-10-4-19-10-25-7-7-16-11-26-11-9 0-18 4-25 11-6 6-11 15-11 25l0 197c0 6 6 12 12 12z m37-24l-25 0 0-185c0-3 1-6 4-8 2-3 5-4 8-4 4 0 7 1 9 4 3 2 4 5 4 8l0 185z m-1 139c0 6-5 11-12 11-6 0-11-5-11-11l0-126c0-6 5-11 11-11 7 0 12 5 12 11l0 126z m-19 157c0 7-5 12-12 12-6 0-11-5-11-12l0-147c0-6 5-11 11-11 7 0 12 5 12 11l0 147z m38 0c0 7-5 12-11 12-7 0-12-5-12-12l0-147c0-6 5-11 12-11 6 0 11 5 11 11l0 147z m-618 89c29-27 76-45 127-51 64-9 133-1 178 26 8 6 19 9 30 9 9 0 18-2 25-7 20-1 59-1 97-1 32 0 69 0 95 0 3 4 4 8 4 12 0 4-1 7-3 12l-553 0z m123-75c-66 10-128 36-158 79 2-3 6-4 9-4l0 11-9-6c0 0 0-1 0-1-2 2-3 5-3 7 0 7 6 12 12 12l584 0 0 0c4 0 7-1 9-4l0 0c9-11 13-21 13-32-1-10-5-20-12-29-2-3-5-6-10-6-10 0-52 1-101 1-41 0-82 0-101 0-3 0-7 1-9 4l0 0c-3 3-7 4-12 4-5 0-11-2-15-5-1 0-2-1-2-1l0 0c-50-30-125-39-195-30z m148-43c65 0 123-26 166-68 42-43 68-101 68-166 0-65-26-123-68-166-43-42-101-68-166-68-65 0-123 26-166 68-42 43-68 101-68 166 0 65 26 123 68 166 43 42 101 68 166 68z m149-85c-38 38-91 62-149 62-58 0-111-24-149-62-38-38-62-91-62-149 0-58 24-111 62-149 38-38 91-62 149-62 58 0 111 24 149 62 38 38 62 91 62 149 0 58-24 111-62 149z m-149-10c38 0 73-16 98-41 25-25 41-60 41-98 0-38-16-73-41-98-25-25-60-41-98-41-38 0-73 16-98 41-25 25-41 60-41 98 0 38 16 73 41 98 25 25 60 41 98 41z m81-58c-20 21-49 34-81 34-32 0-61-13-81-34-21-20-34-49-34-81 0-32 13-61 34-81 20-21 49-34 81-34 32 0 61 13 81 34 21 20 34 49 34 81 0 32-13 61-34 81z" horiz-adv-x="1000" />

<glyph glyph-name="4806---chef-hat-and-fork" unicode="&#xe814;" d="M695 475l0-246c0-8-7-15-15-15l-360 0c-8 0-15 7-15 15l0 258c-23 10-42 23-56 40-16 19-25 41-25 66 0 34 18 65 49 87 28 21 68 34 111 34 23 0 45-4 64-10 17-6 32-13 45-22 13 9 29 16 46 22 21 6 43 10 66 10 47 0 89-14 119-37 33-23 52-56 52-92 0-25-9-48-25-68-14-17-33-31-56-42z m-31-230l0 240c0 6 4 12 10 15l6-15-6 15c22 8 40 21 53 37 12 14 18 30 18 48 0 26-15 50-39 67-25 19-61 30-101 30-20 0-39-3-56-8-18-6-34-14-47-24-5-4-14-5-20 0l0 0c-12 10-27 18-44 24-16 5-35 8-54 8-37 0-70-10-93-27-22-17-36-39-36-62 0-17 7-33 18-46 12-15 30-27 52-34 6-2 11-8 11-15l0-253 328 0z m-518-69c-8-1-15-8-14-17 0-8 8-15 16-14l132 8c2 0 4 0 7 0 21 0 35-6 44-17 10-11 14-26 15-43 0-2 1-5 1-8 0-3-1-5-1-7-1-17-5-33-15-44-9-10-23-16-44-16-3 0-5 0-7 0l-132 8c-8 0-16-6-16-15-1-8 6-16 14-16l132-8c3-1 6-1 9-1 31 0 53 11 68 28 14 16 21 38 22 62 1 3 1 6 1 9 0 3 0 6-1 10-1 23-8 45-22 62-15 17-37 27-68 27-3 0-6 0-9 0l-132-8z m384-125l0 69c0 8 7 15 15 15l280 0c14 0 26-5 35-14 9-9 15-22 15-36 0-13-6-26-15-35-9-9-21-15-35-15l-280 0c-8 0-15 7-15 16z m31 53l0-38 264 0c5 0 10 3 13 6 4 3 6 8 6 13 0 6-2 10-6 14-3 3-8 5-13 5l-264 0z m-196-3c-8 0-15-7-15-16 0-8 7-15 15-15l178 0c9 0 16 7 16 15 0 9-7 16-16 16l-178 0z m-224-27c-9 0-16-7-16-16 0-9 7-16 16-16l209 0c9 0 16 7 16 16 0 9-7 16-16 16l-209 0z m0 54c-9 0-16-7-16-15 0-9 7-16 16-16l209 0c9 0 16 7 16 16 0 8-7 15-16 15l-209 0z" horiz-adv-x="1000" />

<glyph glyph-name="4807---chef-hat-and-cutlery" unicode="&#xe815;" d="M669 402l0-186c0-9-7-16-16-16l-276 0c-9 0-16 7-16 16l0 196c-17 7-31 18-42 30-13 15-20 34-20 53 0 28 15 53 39 70 22 17 53 27 88 27 18 0 35-3 50-8 12-4 23-9 33-16 11 7 22 12 35 16 16 5 34 8 52 8 36 0 70-11 94-29 25-18 41-45 41-74 0-20-7-38-20-54-11-13-25-24-42-33z m-31-171l0 181c-1 6 3 13 9 15l6-15-6 15c17 6 30 16 40 27 8 11 13 23 13 35 0 19-11 36-29 49-19 14-45 23-75 23-15 0-30-3-43-7-13-4-24-10-34-17-6-5-14-5-20 0l0 0c-9 7-20 13-33 17-12 4-26 7-40 7-28 0-52-8-70-21-16-12-26-28-26-45 0-12 5-23 13-33 9-10 22-19 38-25 7-2 11-8 11-15l0-191 246 0z m-437 459c24 0 46-13 61-33 15-19 24-45 24-74 0-29-9-55-24-74-15-20-37-33-61-33-24 0-45 13-61 33-14 19-24 45-24 74 0 29 10 55 24 74 16 20 37 33 61 33z m42-47c-11 15-26 23-42 23-16 0-31-8-42-23-12-15-19-36-19-60 0-24 7-45 19-60 11-15 26-23 42-23 16 0 31 8 42 23 12 15 19 36 19 60 0 24-7 45-19 60z m-64-259l44 0c6 0 12-6 12-12l0-177c0-9-4-18-10-24-6-6-15-10-24-10l0 0c-9 0-18 4-24 10-6 6-9 15-9 24l0 177c0 6 5 12 11 12z m32-24l-20 0 0-165c0-3 1-6 3-7 2-2 4-3 7-3l0 0c3 0 5 1 7 3 2 1 3 4 3 7l0 165z m2 120c0 6-5 12-12 12-6 0-12-6-12-12l0-107c0-6 6-11 12-11 7 0 12 5 12 11l0 107z m665 194c-1 7-6 12-13 11-6 0-11-6-11-12l6-93c0-1 0-3 0-5 0-14-4-24-11-30-8-7-18-10-30-11-2 0-4 0-6 0-2 0-4 0-5 0-12 1-22 4-30 11-7 6-12 16-12 30l0 0c0 2 1 4 1 5l5 93c1 6-4 12-11 12-6 1-12-4-12-11l-6-92c0-3 0-5 0-7l0 0c0-22 8-37 20-48 11-10 27-15 44-16 2 0 4 0 6 0 2 0 5 0 7 0 17 1 32 6 44 16 12 11 20 26 20 48 0 2 0 4-1 7l-5 92z m-89-269l49 0c6 0 11-5 11-11l0-197c0-10-4-19-10-25-7-7-16-11-26-11-10 0-19 4-25 11-7 6-11 15-11 25l0 197c0 6 6 11 12 11z m37-23l-25 0 0-185c0-3 1-6 4-9 2-2 5-3 8-3 4 0 7 1 9 3 3 3 4 6 4 9l0 185z m-1 138c0 7-5 12-12 12-6 0-11-5-11-12l0-125c0-6 5-12 11-12 7 0 12 6 12 12l0 125z m-19 158c0 7-5 12-12 12-6 0-11-5-11-12l0-147c0-6 5-12 11-12 7 0 12 6 12 12l0 147z m38 0c0 7-5 12-11 12-7 0-12-5-12-12l0-147c0-6 5-12 12-12 6 0 11 6 11 12l0 147z m-618-590c29-27 76-44 127-51 64-9 133-1 178 26 8 6 19 10 30 10 9 0 18-2 25-8 20 0 59 0 97 0 32 0 69-1 95-1 3 5 4 9 4 12 0 4-1 8-4 12l-552 0z m123-74c-66 9-128 36-158 78 2-2 5-4 9-4l0 12-10-7c1 0 1 0 1-1-2 2-3 5-3 8 0 6 6 12 12 12l584 0 0 0c4 0 7-2 9-5l0 0c9-10 13-21 13-31-1-10-5-20-12-30-2-3-6-5-10-5-10 0-52 0-101 0-41 0-82 1-101 1-3-1-7 1-9 3l0 0c-3 3-7 5-12 5-6 0-11-2-15-5-1-1-2-1-2-2l0 0c-50-29-125-39-195-29z" horiz-adv-x="1000" />

<glyph glyph-name="4808---chef-hat-and-plate" unicode="&#xe816;" d="M125 137c-9 0-16-7-16-16 0-9 7-16 16-16l750 0c9 0 16 7 16 16 0 9-7 16-16 16l-750 0z m630-25l-39-62-13 8 13-8c-3-5-8-7-13-7l-406 0c-6 0-11 3-14 8l-38 62 0 0c-5 7-3 17 5 21 2 2 5 3 8 3l484 0c9 0 16-7 16-16 0-3-1-7-3-9z m-60-38l19 31-428 0 20-31 389 0z m-8 354l0-233c0-9-7-16-16-16l-342 0c-9 0-16 7-16 16l0 245c-21 9-39 22-53 38-15 18-24 40-24 63 0 33 18 63 47 84 27 20 65 32 106 32 22 0 43-3 62-9 15-6 30-13 42-21 13 9 28 16 44 21 20 6 41 9 64 9 44 0 84-13 113-34 31-23 50-54 50-89 0-24-9-47-24-65-13-17-31-31-53-41z m-31-218l0 228c0 7 3 13 10 15l5-14-5 14c21 8 38 21 50 35 11 14 17 29 17 46 0 24-14 47-37 63-24 18-58 29-95 29-20 0-38-3-54-8-17-5-32-13-44-22-6-5-14-5-20 0l0 0c-12 9-26 17-42 22-16 5-33 8-52 8-34 0-66-10-88-26-21-16-34-36-34-59 0-16 6-30 17-43 12-14 29-25 49-33 7-2 11-7 11-14l0-241 312 0z" horiz-adv-x="1000" />

<glyph glyph-name="4809---apron" unicode="&#xe817;" d="M390 647c32-19 65-28 100-28 36 0 77 11 123 30l0 0c8 3 17 0 21-8 1-3 1-6 0-9-4-50 5-106 29-153 20-40 50-72 92-87l-5-15 5 15c7-2 11-9 11-15l0-367c0-8-6-15-14-16-82-20-165-33-250-34-84-2-170 8-256 35l4 15-4-15c-7 2-12 8-11 15l0 367c0 7 4 13 11 15 41 15 72 47 92 87 24 47 33 104 28 154l0 0c-1 9 5 16 13 17 4 1 8-1 11-3z m100-59c-32-1-62 6-92 20 0-48-10-100-32-144-22-43-55-78-100-98l0-345c79-23 158-32 236-30 78 1 155 13 232 31l0 344c-45 20-78 55-99 98-23 45-34 98-33 147-41-15-77-23-112-23z m-247-402c7-4 17-1 21 7 4 7 1 17-7 21-29 16-45 7-63-1-12-6-24-12-45 1-8 4-17 2-22-6-4-7-2-17 6-21 36-22 56-12 75-2 10 5 20 10 35 1z m609 0c8-4 17-1 21 7 4 7 1 17-6 21-29 16-46 7-64-1-11-6-23-12-45 1-7 4-17 2-21-6-5-7-2-17 5-21 36-22 56-12 75-2 10 5 20 10 35 1z m-454 450c0-4 4-7 8-7 5 0 8 3 8 7 0 81 37 81 82 81l0 0c46 0 84 0 83-80-1-5 3-8 7-8 4 0 8 3 8 7 2 97-44 97-98 97l0 0c-54 0-98 0-98-97z m-31-286c0 4-3 8-8 8-4 0-7-4-7-8l0-297c0-4 3-8 7-8 5 0 8 4 8 8l0 297z m71 0c0 4-4 8-8 8-5 0-8-4-8-8l0-297c0-4 3-8 8-8 4 0 8 4 8 8l0 297z m70 0c0 4-4 8-8 8-4 0-8-4-8-8l0-297c0-4 4-8 8-8 4 0 8 4 8 8l0 297z m70 0c0 4-3 8-8 8-4 0-7-4-7-8l0-297c0-4 3-8 7-8 5 0 8 4 8 8l0 297z m71 0c0 4-4 8-8 8-5 0-8-4-8-8l0-297c0-4 3-8 8-8 4 0 8 4 8 8l0 297z" horiz-adv-x="1000" />

<glyph glyph-name="4810---kitchen-napkin" unicode="&#xe818;" d="M181 419l298 297c6 6 13 9 21 9 8 0 16-3 21-9l298-297c6-6 9-14 9-22 0-8-3-15-9-21l-298-297c-5-6-13-9-21-9-8 0-15 3-21 9l-298 297c-5 6-8 13-8 21 0 8 3 16 8 22z m319 274l-296-296 296-296 296 296-296 296z m285-335c-6 6-16 6-22 0-6-7-6-16 0-23l33-32-296-296-296 296 32 32c6 6 6 16 0 22-6 6-16 6-22 0l-33-33c-5-6-8-13-8-21 0-8 3-16 8-22l298-297c6-6 13-9 21-9 8 0 16 3 21 9l298 297c6 6 9 14 9 22 0 8-3 15-9 21l-34 34z m-530 26c-3-3-3-8 0-11 3-3 8-3 11 0l258 258c3 3 3 8 0 11-3 3-8 3-11 0l-258-258z m37-37c-3-3-3-8 0-11 3-3 8-3 11 0l258 258c3 3 3 8 0 11-3 3-8 3-11 0l-258-258z m37-36c-3-3-3-8 0-11 3-3 8-3 11 0l258 257c3 3 3 8 0 11-3 3-8 3-11 0l-258-257z m37-37c-3-3-3-8 0-11 3-3 8-3 11 0l257 258c4 3 4 8 0 11-3 3-8 3-11 0l-257-258z m36-37c-3-3-3-8 0-11 3-3 8-3 11 0l258 258c3 3 3 8 0 11-3 3-8 3-11 0l-258-258z m37-37c-3-3-3-8 0-11 3-3 8-3 11 0l258 258c3 3 3 8 0 11-3 3-8 3-11 0l-258-258z m37-36c-3-4-3-8 0-12 3-3 8-3 11 0l258 258c3 3 3 8 0 11-3 3-8 3-11 0l-258-257z" horiz-adv-x="1000" />

<glyph glyph-name="4811---food-bowl-with-lid" unicode="&#xe819;" d="M688 487c36-20 67-46 89-77 23-32 36-68 36-107 0-39-13-75-36-107-22-30-53-57-89-77l0-19c0-9-7-16-16-16l-344 0c-8 0-15 7-15 16l0 19c-37 20-68 47-90 77-23 32-35 68-35 107 0 39 12 75 35 107 22 31 53 57 90 77l0 19c0 9 7 16 15 16l344 0c9 0 16-7 16-16l0-19z m63-95c-20 29-49 53-85 71-6 3-10 8-10 15l0 13-312 0 0-13c0-6-3-11-9-14l-7 14 7-14c-36-19-66-43-86-72-19-26-30-57-30-89 0-32 11-62 30-89 20-28 49-53 85-71 6-2 10-8 10-15l0-12 312 0 0 12c0 6 3 11 9 14l7-14-7 14c36 19 66 43 86 72 19 27 30 57 30 89 0 32-11 63-30 89z m-454 177c-9 0-16-7-16-16 0-8 7-15 16-15l406 0c9 0 16 7 16 15 0 9-7 16-16 16l-406 0z m203-24l-38 0c-4 0-8 4-8 8 0 15 5 28 13 38 8 11 20 17 33 17 13 0 25-6 33-17 8-10 13-23 13-38 0-4-4-8-8-8l-38 0z m-29 16l29 0 30 0c-2 8-5 15-9 20-6 7-13 11-21 11-8 0-15-4-21-11-4-5-7-12-8-20z m-314-198c-7 5-17 3-22-4-4-7-2-17 5-22l47-31c7-5 17-3 21 4 5 7 3 17-4 22l-47 31z m703-26c7 5 9 15 5 22-5 7-15 9-22 4l-47-31c-7-5-9-15-4-22 5-7 14-9 21-4l47 31z" horiz-adv-x="1000" />

<glyph glyph-name="4812---chinese-food" unicode="&#xe81a;" d="M852 365c0-70-21-134-56-189-34-54-82-97-140-126l0-21c0-8-7-15-15-15l-141 0-141 0c-8 0-15 7-15 15l0 21c-58 29-106 72-140 126-35 55-56 119-56 189 0 9 7 16 16 16l672 0c9 0 16-7 16-16z m-82-172c29 45 47 99 50 156l-640 0c3-57 21-111 50-156 33-51 80-93 135-118 6-3 10-8 10-15l0-15 125 0 125 0 0 15c0 6 3 11 9 14l7-14-7 14c56 26 103 67 136 119z m-112 437c1 9-6 16-15 16-8 1-16-6-16-15l-10-235 31 0 10 234z m188-11c7 5 8 15 2 22-5 6-15 7-22 2l-301-247 49 0 272 223z" horiz-adv-x="1000" />

<glyph glyph-name="4813---old-style-kettle" unicode="&#xe81b;" d="M768 400c9-2 18-4 28-7 17-5 34-10 51-16l0-248c0-1 0-3 0-4 1-10-19-22-53-32-27-9-61-17-98-22-39-5-80-8-121-9-126-3-249 16-259 67l0 248c17 5 34 10 51 14 10 2 19 4 29 7-1 2-1 4-1 7 0 8 1 17 2 25-13-3-25-6-37-9-21-5-43-11-64-18-7-1-12-7-12-15l0-261c0-1 0-2 1-3l0 0c12-70 150-96 290-93 43 0 86 4 125 9 40 6 76 13 104 23 49 16 78 39 74 67l0 258c0 6-4 13-10 15l-5-15 5 15c-22 8-43 14-64 20-12 3-25 6-37 9 1-9 1-18 1-28 0-1 0-3 0-4z m-463-12c-8 2-17-2-20-10-2-9 2-17 11-20 99-31 197-47 292-48 96 0 189 15 280 48 8 3 12 12 9 20-3 8-11 12-20 10-87-32-177-47-268-47-93 1-187 17-284 47z m-18-243c5-7 15-9 22-4 7 5 9 15 4 22l-151 216 52 17 71-71c6-6 16-6 22 0 6 6 6 16 0 22l-77 77c-4 5-10 6-16 4l0 0-81-26c-2 0-3-1-5-2-7-5-9-15-4-22l0 0 163-233z m298 369c76 0 117-9 140-27 25-20 27-47 27-83 0-8-6-14-14-15-52-11-104-17-156-17-53-1-106 5-159 17l0 0c-7 2-12 8-12 15 0 28 3 55 29 77 24 19 67 33 145 33z m120-52c-17 14-52 20-120 20-70 0-106-10-125-25-13-11-16-25-18-40 47-10 93-14 139-14 47 0 93 5 140 14-1 20-4 36-16 45z m-123 28l-38 0c-5 0-8 4-8 8 0 15 5 28 13 38 8 10 20 17 33 17 12 0 24-7 32-17 8-10 13-23 13-38 0-4-3-8-8-8l-37 0z m-30 16l30 0 29 0c-1 8-4 15-9 20-5 7-13 11-20 11-8 0-16-4-21-11-5-5-8-12-9-20z m186 160c-7 0-12-5-12-12 0-6 5-12 12-12 22 0 43-9 58-24 15-15 24-35 24-58l0-156c0-6 5-12 12-12 6 0 11 6 11 12l0 156c0 29-12 56-31 75-19 19-45 31-74 31z m-297 4c-9 0-16-7-16-16 0-8 7-15 16-15l297 0c8 0 15 7 15 15 0 9-7 16-15 16l-297 0z m-121-266c0-6 5-12 12-12 6 0 11 6 11 12l0 141c0 27 11 51 29 69 18 17 42 28 69 28 6 0 12 6 12 12 0 7-6 12-12 12-33 0-64-14-86-36-22-22-35-52-35-85l0-141z" horiz-adv-x="1000" />

<glyph glyph-name="4814---wine-bottle" unicode="&#xe81c;" d="M441 741l118 0c9 0 16-7 16-16l0-250c0-7 11-13 24-20 31-17 71-40 66-113l-24-368-16 1 16-1c-1-8-8-15-16-15l0 0-250 0c-8 0-15 7-16 16l-24 367c-5 73 35 96 67 113 12 7 23 13 23 20l0 250c0 9 7 16 16 16z m103-32l-88 0 0-234c0-25-18-35-39-47-24-13-55-30-51-84l24-353 220 0 24 353c4 54-27 71-51 84-21 12-39 22-39 47l0 234z m-111-437l15-219 104 0 15 219-134 0z m136 31l14 0 17 0-18-266c0-8-7-15-15-15l-134 0 0 0c-8 0-15 6-15 14l15 2-15-1-18 266 17 0 14 0 138 0z" horiz-adv-x="1000" />

<glyph glyph-name="4815---wine-glass" unicode="&#xe81d;" d="M655 733c18-27 32-57 42-91 9-33 15-70 15-107 0-79-23-151-61-203-38-54-91-87-151-87-59 0-113 33-151 87-38 52-61 124-61 203 0 37 6 74 15 107 10 34 25 65 43 92l0 0c4 6 11 8 17 6 22-5 44-9 67-11 23-3 46-4 70-4 24 0 48 1 70 4 23 2 46 6 68 11l0 0c7 2 14-1 17-7z m12-100c-8 28-19 53-33 75-19-5-40-8-60-10-25-3-49-4-74-4-25 0-49 1-73 4-21 2-41 5-61 10-14-22-25-47-33-75-9-30-13-63-13-98 0-73 20-138 54-185 33-46 77-74 126-74 49 0 93 28 126 74 34 47 54 112 54 185 0 35-4 68-13 98z m-183-403l0-226c0-9 7-16 16-16 9 0 16 7 16 16l0 226c-5-1-11-1-16-1-5 0-10 0-16 1z m-149-240c-7-4-11-13-7-21 4-8 13-11 21-7 16 8 39 14 65 19 25 4 54 7 85 7 32 0 61-3 87-7 26-5 49-12 65-20 8-4 17-1 21 7 4 8 0 17-7 21-19 9-44 17-73 22-28 5-60 8-93 8-32 0-63-2-91-7-29-5-54-13-73-22z" horiz-adv-x="1000" />

<glyph glyph-name="4816---drink-with-ice" unicode="&#xe81e;" d="M226 584l445 0c9 0 16-7 16-16 0-1 0-2 0-3l-83-552c0-10-4-20-10-26-7-8-17-12-27-12l-237 0c-10 0-20 4-27 12-6 6-10 16-10 26l-83 553 0 0c-1 8 5 16 13 17 1 0 2 1 3 1z m427-32l-409 0 79-535c1-1 1-2 1-3 0-2 1-4 2-6 1-1 3-2 4-2l237 0c1 0 3 1 4 2 1 2 2 3 2 6 0 0 0 1 0 2l0 0 80 536z m116 109c8-3 17 1 20 9 3 8-1 17-9 20l-78 31c-3 1-7 2-11 3-17 3-34-2-48-12-13-9-24-23-30-39-2-5-3-11-4-16l-48-265c-2-9 4-17 12-18 9-2 17 4 18 12l48 265c1 4 2 7 3 10 4 11 11 20 20 26 7 5 16 8 24 6 2 0 3 0 5-1l78-31z m-444-326l37 18 0 0c0 0 0 0 1 1 4 1 8 1 12 0 4-1 8-4 10-9l0 0c0 0 0 0 0 0l19-37 0 0c0 0 0-1 0-1 2-4 2-8 1-12-2-4-5-8-9-10l0 0c0 0 0 0-1 0l-36-18c0-1-1-1-1-1-4-2-9-2-13-1-3 2-7 4-9 8 0 1-1 1-1 2l-18 36c0 0 0 1-1 1-1 4-1 9 0 12 1 4 4 8 8 10 0 0 1 1 1 1z m43 4l-36-18c0 0 0 0-1 0l-3 7 3-7c0-1 0-1 0-1-1-1-1-1 0-1 0-1 0-1 0-1l-7-3 7 3 18-36c0-1 0-1 0-1l-7-4 7 4c1-1 1-1 1-1 1 0 1 0 1 0 0 0 1 0 1 0l3-7-3 7 36 18c1 1 1 1 1 1 1 0 1 0 1 1 0 0 0 0 0 1 0 0 0 0-1 1l-18 36c0 0 0 0 0 1 0 0-1 0-1 0 0 0-1 0-1 0 0 0-1 0-1 0z m67 105l37-18c4-3 7-6 9-10 1-5 1-9-1-14l-19-36c0-1 0-1 0-2-3-4-6-6-10-8-4-1-8-1-12 1-1 0-1 0-2 1l-37 18 4 7-4-7c0 0 0 0 0 0-4 3-7 6-8 10-2 4-1 9 1 13l0 0c0 0 0 1 0 1l18 37 7-4-7 4c1 0 1 0 1 0 2 4 5 7 9 8l2-6 0 0-2 6c1 0 1 0 1 0 4 2 9 1 13-1l0 0c0 0 0 0 0 0z m30-32l-37 18c0 0 0 0-1 0 0 1 0 1 0 1 0-1-1-1-1-1l0 0c0 0 0 0-1 0 0 0 0-1 0-1l-18-36c0 0 0-1 0-1-1 0-1-1 0-1 0 0 0-1 0-1 0 0 1 0 1 0l36-18c0-1 1-1 1-1l0 0c0 0 1 0 1 0 0 0 1 0 1 1 0 0 0 0 0 0l0 0 19 37c0 1 0 1 0 2 0 0-1 0-1 1z m72-87l25-33c3-3 4-8 3-12 0-5-3-9-6-12l-34-25 0 0c0 0 0 0-1 0-3-3-8-4-12-3-4 0-8 3-11 7l0 0c0 0 0 0 0 0l-25 32c0 1 0 1-1 2-2 3-3 8-2 12 0 4 2 8 6 11 0 0 0 0 1 1l32 24c1 0 1 0 2 1 3 2 8 3 12 2 4 0 8-2 10-6 1 0 1 0 1-1z m13-42l-25 33c0 0 0 0 0 0l0 0 1 1 5 4-6-5c-1 1-1 1-2 1 0 0 0 0-1 0l0 0-5 6 5-6-33-25c0 0 0 0 0 0l0 0 0 0-3 3-2 3 5-6c-1-1-1-1-1-1 0-1 0-1 0-1l0-1-6-4 6 4 25-33c0 0 0 0 1 0 0-1 0-1 1-1 0 0 0 0 1 0 0 1 0 1 0 1l33 25c1 0 1 0 1 1 0 0 0 1 0 1z m-107-56l7-41c1-4 0-9-2-13-3-3-7-6-11-7l-42-7c-4-1-9 0-12 2-4 3-7 7-8 12l-7 41c-1 4 0 9 3 13 2 3 6 6 11 7l41 7c5 1 9 0 13-3 3-2 6-6 7-11z m-8-44l-7 42c0 0-1 0-1 1 0 0-1 0-1 0l-41-8c-1 0-1 0-1 0-1-1-1-1-1-2l8-41c0 0 0 0 0-1 1 0 1 0 2 0l41 7c0 1 1 1 1 1 0 1 0 1 0 1z m94-48l-11-40c-1-4-4-8-8-10-4-2-9-3-13-2l-41 12c-4 1-8 4-10 8-2 4-3 9-1 13l11 41c2 4 5 8 9 10 4 2 8 3 13 1l39-11c1 0 1 0 2-1 4-1 7-4 9-8 2-3 3-8 2-12 0 0 0-1-1-1z m-26-36l12 40c0 0 0 0 0 1l0 0c0 0 0 0 0 1-1 0-1 0-1 1 0 0 0 0 0 0l0 0-41 11c0 0 0 0-1 0 0 0-1 0-1-1l-11-40c0 0 0-1 0-1 0-1 0-1 1-1l40-12c0 0 1 0 1 0 1 1 1 1 1 1z m-76 12l-12-40c-1-5-4-8-8-10-4-3-9-3-13-2l-40 12c-5 1-9 4-11 8-2 4-3 9-1 13l11 40 8-2-1 0-7 2 1 0-1 0c1 1 1 1 1 1 1 4 4 8 8 10 4 2 8 2 13 1l-2-7 0 0 2 7 0 0 0 0c0 0 0 0 1 0l39-12c5-1 8-4 10-8 2-4 3-8 2-13z m-27-36l12 40c0 1 0 1 0 2-1 0-1 0-1 0l-40 12c0 0 0 0-1 0 0 0 0 0-1 0 0 0 0 0 0-1-1 0-1 0-1-1l-11-39c0-1 0-1 0-1 0-1 0-1 1-1l40-12c0 0 1 0 1 0 1 0 1 1 1 1z m-149 322c-6 0-12-5-12-11 0-7 6-12 12-12l129 0c-4 6-9 18-6 23l-123 0z m232-23l163 0c6 0 12 5 12 12 0 6-6 11-12 11l-151 0c-1 0-1-1-1-2l-11-21z" horiz-adv-x="1000" />

<glyph glyph-name="4817---pitcher" unicode="&#xe81f;" d="M324 713l421 0c9 0 16-7 16-16 0 0 0-1 0-1l-57-663c0-13-5-24-13-32-8-9-19-14-32-14l-312 0c-13 0-24 5-32 14-8 8-13 20-13 32l-51 560c-95 27-131 48-125 69 7 25 72 34 167 47 9 1 19 2 29 4l0 0c0 0 1 0 2 0z m404-31l-403 0c-10-2-19-3-28-4-83-12-140-20-141-24-1-2 32-12 113-34 7-1 12-7 13-14l0 0 51-570c0-1 0-2 0-3 0-4 2-8 5-11 2-2 5-4 9-4l312 0c4 0 7 2 10 4 2 3 4 7 4 11l0 0c0 1 0 1 0 2l0 0 55 647z m11-79c-8 0-15-7-15-15 0-9 7-16 15-16l70 0c9 0 18-4 24-10 7-7 11-16 11-25l0-246c0-31-13-59-33-79-20-20-48-33-79-33l-31 0c-8 0-15-7-15-16 0-8 7-15 15-15l31 0c39 0 75 16 101 42 26 26 42 61 42 101l0 246c0 18-7 35-19 47-13 12-29 19-47 19l-70 0z m-372-34c-8 0-15-7-15-15 0-9 7-16 15-16l289 0c8 0 15 7 15 16 0 8-7 15-15 15l-289 0z m17-85c-8 0-15-7-15-15 0-9 7-16 15-16l255 0c8 0 15 7 15 16 0 8-7 15-15 15l-255 0z m4-84c-8 0-15-7-15-16 0-9 7-16 15-16l247 0c8 0 15 7 15 16 0 9-7 16-15 16l-247 0z m11-85c-8 0-15-7-15-16 0-8 7-15 15-15l225 0c8 0 15 7 15 15 0 9-7 16-15 16l-225 0z" horiz-adv-x="1000" />

<glyph glyph-name="4818---cooking-on-stove" unicode="&#xe820;" d="M727 458c35-19 56-36 69-57 14-23 17-50 17-89 0-38-13-75-36-107-22-30-53-56-89-77l0-19c0-8-7-15-16-15l-344 0c-8 0-15 7-15 15l0 19c-37 21-68 47-90 77-23 32-35 69-35 107 0 39 3 66 16 89 13 21 34 38 69 57l0 19c0 8 7 15 16 15l422 0c9 0 16-7 16-15l0-19z m42-73c-10 17-30 31-64 49-6 2-10 8-10 14l0 13-390 0 0-13c0-5-3-11-9-14l-7 14 7-14c-35-18-55-32-65-49-10-17-12-39-12-73 0-32 11-62 30-89 20-28 49-52 85-71 6-2 10-8 10-14l0-13 312 0 0 12c0 6 3 12 9 15l7-14-7 14c36 18 66 43 86 71 19 27 30 57 30 89 0 34-2 56-12 73z m-612-13c-7 5-17 3-22-4-4-7-2-17 5-22l47-31c7-5 17-3 21 4 5 8 3 17-4 22l-47 31z m703-26c7 5 9 15 5 22-5 7-15 9-22 4l-47-31c-7-5-9-14-4-22 5-7 14-9 21-4l47 31z m-719-326c-9 0-16-7-16-15 0-9 7-16 16-16l718 0c9 0 16 7 16 16 0 8-7 15-16 15l-718 0z m524 45c-7 5-17 3-22-4-4-8-3-17 5-22l47-31c7-5 16-3 21 4 5 7 3 17-4 22l-47 31z m-313-26c8 5 10 14 5 22-5 7-15 9-22 4l-47-31c-7-5-9-15-4-22 5-7 14-9 22-4l46 31z m164 8c0 9-7 16-16 16-9 0-15-7-15-16l-1-26c0-9 7-16 16-16 9 0 16 7 16 16l0 26z m-14 640c4 7 2 17-5 21-7 5-17 3-21-4-15-23-22-39-21-55 1-17 10-31 28-50 7-7 12-15 14-24 1-7-1-16-6-25-4-7-1-17 6-21 7-4 17-1 21 6 9 16 11 31 9 44-2 16-10 30-21 41-13 14-19 23-20 31 0 8 5 19 16 36z m83-31c5 7 3 17-5 21-7 5-17 3-21-5-11-17-17-29-16-42 1-14 8-25 22-39 4-4 8-10 8-15 1-4 0-9-3-15-4-8-2-17 6-21 7-5 17-2 21 6 7 12 9 24 7 34-2 13-8 24-16 33-9 8-13 14-14 19 0 5 4 12 11 24z m-177-81c-5-7-3-17 5-21 7-5 17-3 21 5 8 11 11 19 10 29 0 9-5 17-14 27-2 2-3 3-3 5-1 2 0 3 1 5 4 8 1 17-6 21-8 5-17 2-21-6-5-8-7-17-5-24 1-9 6-17 11-23 4-4 6-6 6-7 0-2-1-5-5-11z" horiz-adv-x="1000" />

<glyph glyph-name="4819---meat-cutting" unicode="&#xe821;" d="M125 44c-9 0-16-7-16-15 0-9 7-16 16-16l750 0c9 0 16 7 16 16 0 8-7 15-16 15l-750 0z m414 462c2 3 5 6 7 10 3 3 5 7 7 10l13-8-13 8c1 2 3 4 5 5 0 0 0 1 1 1 1 4 3 8 6 12 10 17 27 34 57 20 27 14 69 36 109 56 30 16 57 30 75 39 0 8-1 14-3 19-3 6-7 10-14 14l-267-140-340-178c-12-6-20-17-24-28-4-12-3-26 3-37l94-179 369 193-87 166 0 0c-3 6-2 13 2 17z m33-8c-1-1-2-2-3-4l89-169c0 0 1-1 1-1 4-8 1-17-7-21l-7 13 7-13-395-207c0 0-1-1-1-1-8-4-17-1-21 7l13 7-13-7-101 192c-10 20-12 41-6 61 6 19 20 36 39 47l340 178 273 143c5 2 10 3 15 1l0 0c18-8 29-18 36-32 6-13 8-28 5-45-1-5-4-9-8-12l-8 14 8-14c-24-12-54-27-83-42-43-23-88-46-115-60-5-3-12-3-17 0l0 0c-11 7-18 1-22-6-2-3-3-6-5-9-2-5-4-8-7-12-1-1-2-1-3-2-2-2-3-4-4-6z m-377-193c-6 2-12 6-16 12 0 1 0 1-1 2l0 0 0 0 13 7 1 0-14-7c-3 7-4 15-2 22 2 7 7 13 13 17 0 0 1 0 2 1l0 0 0 0 6-13 1-1-7 14c7 3 15 4 22 2 6-2 12-7 16-13 0-1 1-1 1-2l0 0 0 0-12-6-2-1 14 7c4-7 4-15 2-22-2-7-6-12-12-16-1-1-2-1-2-1l0 0 0 0-7 12 0 2 7-14c-7-4-15-4-23-2z m198-266c-4-8-2-17 5-22 8-4 17-1 22 6 2 3 4 7 6 13 5 9 10 23 14 30 20-13 41-14 59-10 14 3 25 9 35 16 10 6 18 14 22 22 7 9 8 19 4 27-4 8-5 15-4 21 1 3 2 5 3 7 2 2 3 3 6 5 5 2 12 3 21 1 22-6 50-5 78-1 27 3 55 9 77 15l4 1c16 4 23 10 28 14-7-19-14-52 19-98 4-7 12-12 20-18 8-4 15-9 18-14l13 9-13-9 0 0c1-1-1-4-10-10-8-5-10-15-5-22 5-7 15-9 22-4 29 19 30 37 19 54l0 0 0 0 0 0c-6 9-17 16-26 22-6 4-11 8-13 10-27 38-18 63-13 75 4 10 6 17 0 25-9 12-23 8-67-4l-3-1c-22-5-48-11-74-15-24-3-49-4-67 1-17 4-31 2-43-4-6-3-11-8-15-13-5-5-7-11-9-18-3-12-2-26 4-40l0 1c-2-4-7-9-14-14-7-5-15-9-23-10-14-4-29-2-43 11-4 3-9 5-14 4l3-16-3 16c-14-3-29-34-38-53-2-5-5-9-5-10z m137 72c0 0 4-7 2-4 0 1-1 2-2 3l0 1z m249 74c0 1 0 1 0 1 1-2 2-3 0-1z" horiz-adv-x="1000" />

<glyph glyph-name="4820---flat-pan" unicode="&#xe822;" d="M341 153l-33 33-154-155c-4-5-6-11-6-17 0-6 2-12 6-17l0 0 0 0 1 0 0 0c0 0 0 0 0 0 5-4 10-6 16-6 6 0 12 2 16 6l0 0 0 0 0 0c1 1 1 1 1 1l153 155z m-22 67l55-55 0 0c6-6 6-16 0-22l-11 11 11-11-164-167c0 0 0 0-1-1l0 0c0 0 0 0 0 0l0 0c-10-10-24-16-38-16-14 0-27 5-37 15-1 0-1 1-1 1l0 0c-1 0-1 0-1 0l0 0 0 0c-10 11-16 25-16 39 0 14 6 28 16 38l164 167c0 0 0 0 0 1 7 6 16 6 23 0l0 0z m92 14c6 7 6 16 0 23-7 6-16 6-23 0l-42-43 22-22 43 42z m179 507c81 0 155-33 208-86 53-53 86-127 86-208 0-81-33-154-86-207-53-53-127-86-208-86-81 0-154 33-207 86-53 53-86 126-86 207 0 81 33 155 86 208 53 53 126 86 207 86z m186-108c-48 47-113 76-186 76-72 0-138-29-185-76-47-48-77-113-77-186 0-72 30-138 77-185 47-48 113-77 185-77 73 0 138 29 186 77 47 47 76 113 76 185 0 73-29 138-76 186z" horiz-adv-x="1000" />

<glyph glyph-name="4821---frying-pan" unicode="&#xe823;" d="M173 389l390 0c13 0 25-5 33-14 9-8 14-20 14-33l0-39c0-23-9-45-25-61-16-15-37-25-61-25l-312 0c-24 0-45 10-61 25-15 16-25 38-25 61l0 39c0 13 5 25 14 33 8 9 20 14 33 14z m390-31l-390 0c-5 0-8-2-11-5-3-3-5-6-5-11l0-39c0-15 6-29 16-38 10-10 24-17 39-17l312 0c15 0 29 7 39 17 10 9 16 23 16 38l0 39c0 5-2 8-5 11-2 3-6 5-11 5z m-437 76c-9 0-16-7-16-16 0-8 7-15 16-15l484 0c9 0 16 7 16 15 0 9-7 16-16 16l-484 0z m242-31l-49 0c-8 0-15 7-15 15 0 18 7 34 19 46 11 12 27 19 45 19 18 0 34-7 46-19 11-12 18-28 18-46 0-8-7-15-15-15l-49 0z m-29 31l29 0 29 0c-1 3-3 6-6 8-6 6-14 10-23 10-9 0-17-4-23-10-3-2-5-5-6-8z m244-121c-6-6-5-16 1-22 7-5 17-5 22 2 10 11 21 20 34 27 13 7 28 13 40 15 1 0 16 1 25 1 4 0 6 0 7 0 9 0 15 8 15 16-1 9-8 15-16 15-2 0-4 0-7 0-9 0-26-1-30-2-15-2-33-9-50-18-15-9-29-20-41-34z m132 75l138 0c10 0 19-4 26-11 7-6 11-16 11-26l0 0c0-10-4-19-11-26-7-7-16-11-26-11l-138 0c-9 0-16 7-16 16l0 43c0 8 7 15 16 15z m138-31l-123 0 0-12 123 0c1 0 3 1 4 2 1 1 2 3 2 4l0 0c0 2-1 3-2 4-1 1-3 2-4 2z" horiz-adv-x="1000" />

<glyph glyph-name="4822---sauce-pan" unicode="&#xe824;" d="M150 479l436 0c7 0 13-3 17-7l0 0c1-1 1-1 1-2 4-4 6-9 6-15l0-214c0-31-13-60-33-80-21-21-49-34-80-34l-258 0c-31 0-59 13-80 34-20 20-33 49-33 80l0 214c0 6 3 12 7 17l0 0 0 0 0 0 0 0 0 0 0 0c5 4 11 7 17 7z m429-31l-422 0 0-207c0-23 9-43 24-58 15-15 36-24 58-24l258 0c22 0 43 9 58 24 15 15 24 35 24 58l0 207z m-429 7l0 0 0 0 0 0 0 0z m-6 6l6-6 0 0-6 6z m6-6l5-5 0 0-5 5 0 0z m-24 69c-9 0-16-7-16-16 0-8 7-15 16-15l484 0c9 0 16 7 16 15 0 9-7 16-16 16l-484 0z m242-31l-49 0c-8 0-15 7-15 15 0 18 7 34 19 46 11 12 27 19 45 19 18 0 34-7 46-19 11-12 18-28 18-46 0-8-7-15-15-15l-49 0z m-29 31l29 0 29 0c-1 3-3 5-6 8-6 6-14 9-23 9-9 0-17-3-23-9-3-3-5-5-6-8z m244-159c-6-7-5-17 1-22 7-6 17-5 22 1 10 11 21 20 34 27 13 8 28 13 40 15 1 0 16 1 25 1 4 0 6 0 7 0 9 1 15 8 15 16-1 9-8 16-16 15-2 0-4 0-7 0-9 0-26-1-30-1-15-3-33-10-50-19-15-9-29-20-41-33z m132 75l138 0c10 0 19-5 26-11 7-7 11-16 11-27l0 0c0-10-4-19-11-26-7-7-16-11-26-11l-138 0c-9 0-16 7-16 16l0 43c0 9 7 16 16 16z m138-32l-123 0 0-12 123 0c1 0 3 1 4 2 1 1 2 3 2 4l0 0c0 2-1 3-2 5-1 1-3 1-4 1z" horiz-adv-x="1000" />

<glyph glyph-name="4824---hot-food" unicode="&#xe826;" d="M852 365c0-70-21-134-56-189-34-54-82-97-140-126l0-21c0-8-7-15-15-15l-141 0-141 0c-8 0-15 7-15 15l0 21c-58 29-106 72-140 126-35 55-56 119-56 189 0 9 7 16 16 16l672 0c9 0 16-7 16-16z m-82-172c29 45 47 99 50 156l-640 0c3-57 21-111 50-156 33-51 80-93 135-118 6-3 10-8 10-15l0-15 125 0 125 0 0 15c0 6 3 11 9 14l7-14-7 14c56 26 103 67 136 119z m-220 203c-1 4-3 7-4 10-6 13-15 25-26 36-20 20-45 32-69 35-25 4-49-3-66-20-12-12-19-27-21-44 0-5 0-11 0-17l24 0c-1 5-1 10 0 15 1 11 5 22 13 30 12 11 29 16 47 13 19-2 39-12 56-29 9-9 16-19 21-29l25 0z m-254 142l9 9-115 114 0 0c-1 1-2 2-4 2-2 0-3-1-4-2l0 0 0 0c-2-1-2-3-2-5 0-1 0-3 2-4l114-114z m42-2l-31-31 0 0c-6-7-16-7-22 0l0 0-126 125c-7 7-11 17-11 26 0 10 4 20 11 27l0 0 0 0c8 7 17 11 27 11 10 0 19-4 26-11l0 0 126-125 0 0c6-6 6-16 0-22l0 0z m41-90c5-4 12-4 17 0 4 5 4 12 0 17l-76 75c-4 5-12 5-16 0-5-4-5-12 0-16l75-76z m219 225c4 7 1 17-6 21-8 4-17 1-21-6-14-26-21-44-20-62 1-18 10-34 27-56 7-8 13-18 14-30 1-9 0-19-6-31-4-8 0-17 7-21 8-4 18 0 21 7 9 18 11 34 9 49-2 18-10 33-21 46-13 16-20 27-20 38-1 11 5 24 16 45z m83-37c4 8 2 17-6 21-7 4-17 2-21-6-11-19-16-33-15-47 1-14 8-27 21-43 4-5 8-12 9-19 1-6 0-13-4-21-4-7 0-17 7-21 8-3 17 0 21 8 7 13 8 26 7 38-2 13-8 25-16 35-9 11-14 18-14 25 0 7 3 16 11 30z m-178-98c-4-8-1-17 6-21 8-4 17-2 21 6 7 13 11 22 10 31-1 11-5 19-14 30-2 2-4 5-4 8 0 2 0 5 2 8 4 8 0 18-7 21-8 4-17 1-21-7-5-9-6-18-5-26 1-10 6-18 11-24 5-6 7-9 7-11 0-3-2-8-6-15z" horiz-adv-x="1000" />

<glyph glyph-name="4825---beater" unicode="&#xe827;" d="M300 725l312 0c47 0 89-19 119-49 30-31 49-73 49-119l0-88c0-22-9-42-23-57-15-14-35-23-56-23l-259 0c-6 0-12 4-14 9-12 21-30 39-51 52-20 12-44 19-69 19l-73 0c-8 0-15 7-15 16l0 160c0 22 9 42 23 57 15 14 35 23 57 23z m312-31l-312 0c-14 0-26-6-35-14-9-9-14-21-14-35l0-144 57 0c31 0 60-9 85-24 24-14 43-34 58-57l250 0c13 0 25 6 34 15 9 8 14 21 14 34l0 88c0 38-15 72-40 97-25 24-59 40-97 40z m-291-34l148 0c11 0 21-4 28-12 8-7 12-17 12-28 0-11-4-21-12-28-7-7-17-12-28-12l-148 0c-11 0-21 5-29 12-7 7-11 17-11 28 0 11 4 21 11 28 8 8 18 12 29 12z m148-16l-148 0c-7 0-13-2-18-7-4-4-7-10-7-17 0-7 3-13 7-17 5-4 11-7 18-7l148 0c7 0 13 3 17 7 5 4 8 10 8 17 0 7-3 13-8 17-4 5-10 7-17 7z m199-252c0 8-7 15-16 15-8 0-15-7-15-15l0-113c0-8 7-15 15-15 9 0 16 7 16 15l0 113z m-16-97c27 0 51-11 68-28 17-17 28-41 28-68l0-128c0-26-11-50-28-68-17-17-41-28-68-28-26 0-50 11-67 28-18 18-28 42-28 68l0 128c0 27 10 51 28 68 17 17 41 28 67 28z m46-50c-12 11-28 19-46 19-17 0-33-8-45-19-12-12-19-28-19-46l0-128c0-18 7-34 19-46 12-11 28-19 45-19 18 0 34 8 46 19 12 12 19 28 19 46l0 128c0 18-7 34-19 46z m-46 50l0 0c13 0 24-5 32-13 8-8 13-19 13-31l0-232c0-12-5-23-13-31-8-8-19-13-32-13l0 0c-12 0-23 5-31 13-8 8-13 19-13 31l0 232c0 12 5 23 13 31 8 8 19 13 31 13z m0-31l0 0c-3 0-6-2-9-4-2-2-4-6-4-9l0-232c0-3 2-6 4-9 3-2 6-4 9-4l0 0c4 0 7 2 10 4 2 3 4 6 4 9l0 232c0 3-2 7-4 9-3 2-6 4-10 4z" horiz-adv-x="1000" />

<glyph glyph-name="4826---add-salt" unicode="&#xe828;" d="M852 328c0-69-21-134-56-189-34-53-82-97-140-125l0-22c0-8-7-15-15-15l-141 0-141 0c-8 0-15 7-15 15l0 22c-58 28-106 72-140 125-35 55-56 120-56 189 0 9 7 16 16 16l672 0c9 0 16-7 16-16z m-82-172c29 46 47 99 50 157l-640 0c3-58 21-111 50-157 33-51 80-92 135-118 6-2 10-8 10-15l0-15 125 0 125 0 0 15c0 6 3 12 9 14l7-14-7 14c56 26 103 68 136 119z m-318 396c-65 17-96 49-125 81-25 26-50 52-97 66l-69-130c38-29 73-35 108-40 44-6 88-13 140-60l43 83z m-103 102c29-31 59-62 129-76 2 0 3-1 5-2 7-4 10-13 6-21l0 0-62-117c-1-2-2-4-3-5-6-6-16-6-22 0l0 0c-51 52-95 59-138 65-42 7-84 13-132 55-6 5-8 13-4 20l0 0 79 151c3 6 11 10 18 9l0 0c65-15 94-47 124-79z m155-141c-3 2-6 1-9-1-4-3-4-10 2-13l0 0 1-1 1 0 1 0 1-1 0 0 1-1 1 0 1 0 1-1 0 0 1-1 1 0 1-1 1 0 0 0 1-1c6-3 13 2 12 8-1 3-2 5-4 6l-1 0-1 1-1 0 0 0-1 1-1 0-1 1-1 0-1 1 0 0-1 1-1 0-1 1-1 0-1 0-1 1 0 0z m121-157c3-6 11-7 14-1 1 2 2 4 1 7l0 0-1 1 0 1 0 1-1 1 0 1-1 1 0 0 0 1-1 1 0 1 0 1-1 1 0 1 0 0-1 1 0 1 0 0c-3 7-13 6-15-1 0-2 0-3 0-5l1 0 0-1 0-1 1 0 0-1 0-1 1-1 0-1 0-1 1 0 0-1 0-1 1-1 0-1 0-1 1 0 0-1 0-1z m-27 54c4-6 13-4 14 3 0 2 0 4-1 6l0 0-1 1 0 0-1 1 0 1-1 1 0 0-1 1 0 1-1 1 0 0-1 1 0 1-1 1 0 0-1 1 0 1-1 0 0 1c-4 6-13 3-14-3-1-3 0-5 1-6l1-1 0-1 1 0 0-1 1-1 0 0 1-1 0-1 1 0 0-1 1-1 0 0 0-1 1-1 0-1 1 0 0-1 1-1 0 0z m-39 46c4-4 11-2 13 4 0 3 0 6-2 8l-1 0 0 1-1 0-1 1 0 0-1 1-1 1 0 0-1 1-1 0 0 1-1 1-1 0 0 1-1 0-1 1 0 0-1 1-1 0c-5 5-14 0-12-7 0-2 1-3 2-5l1 0 1-1 0 0 1-1 1 0 0-1 1 0 1-1 0 0 1-1 0-1 1 0 1-1 0 0 1-1 1 0 0-1 1 0 0-1z m-68 18c-2 1-5 1-8 0-5-3-5-10 0-13l0-1 1 0 0-1 1 0 0 0 1-1 1 0 0 0 1-1 0 0 1 0 0-1 1 0 0 0 1-1 0 0 1-1 0 0 1 0 0-1 1 0 0 0 1-1 0 0c6-4 13 0 13 7-1 2-2 4-3 5l-1 1 0 0-1 1 0 0-1 0-1 1 0 0-1 1 0 0-1 0 0 1-1 0 0 1-1 0-1 0 0 1-1 0 0 0-1 1-1 0 0 1-1 0 0 0-1 1z m60-123c0-3 2-5 5-6 5-2 11 2 11 8l0 0-1 1 0 1 0 0 0 1 0 1 0 0 0 1 0 1 0 0 0 1 0 1-1 0 0 1 0 1 0 1 0 0 0 1 0 1 0 0-1 1 0 1 0 0 0 1 0 0c-1 7-11 9-14 3-1-2-2-4-1-6l0 0 0-1 0 0 0-1 0-1 0 0 0-1 1-1 0 0 0-1 0 0 0-1 0-1 0 0 0-1 0-1 0 0 1-1 0 0 0-1 0-1 0 0 0-1 0-1 0 0z m-17 57c1-3 4-4 6-4 6 0 10 6 7 11l0 0 0 1 0 0-1 1 0 1 0 0-1 1 0 0 0 1-1 0 0 1 0 0-1 1 0 1 0 0-1 1 0 0 0 1-1 0 0 1 0 0-1 1 0 0 0 1-1 0 0 1 0 0c-2 3-5 4-7 3-6 0-10-7-6-12l0 0 0 0 1-1 0 0 0-1 1 0 0-1 0 0 1-1 0 0 0-1 1 0 0-1 0 0 0-1 1 0 0-1 0 0 1-1 0 0 0-1 0 0 1-1 0 0 0-1 1 0 0 0z m-66 25c-2 1-5 1-8 0-5-3-5-10 0-13l0-1 0 0 1 0 0 0 1-1 0 0 0 0 1 0 0-1 0 0 1 0 0 0 0-1 1 0 0 0 0 0 1-1 0 0 0 0 1 0 0-1 0 0 1 0 0 0 0-1 1 0 0 0 0 0 1-1 0 0 0 0 0-1 1 0 0 0c5-5 13-1 13 5 0 3-1 5-2 6l-1 1 0 0 0 0-1 1 0 0 0 0-1 1 0 0-1 0 0 1 0 0-1 0 0 0 0 1-1 0 0 0-1 1 0 0-1 0 0 1 0 0-1 0 0 1-1 0 0 0 0 1-1 0 0 0-1 0 0 1-1 0 0 0-1 1 0 0z m24-73c0-3 2-6 5-7 5-2 11 2 10 8l0 0 0 0 0 1 0 0 0 1 0 0 0 1 0 0 0 1 0 0 0 1 0 0 0 1 0 0 0 0 0 1 0 0 0 1-1 0 0 1 0 0 0 1 0 0 0 0 0 1 0 0 0 1 0 0 0 1 0 0 0 1 0 0 0 1-1 0 0 0 0 1 0 0 0 0c0 3-2 5-5 6-5 2-11-2-10-9l0 0 0 0 0 0 0-1 0 0 0-1 0 0 0 0 0-1 0 0 1-1 0 0 0 0 0-1 0 0 0-1 0 0 0 0 0-1 0 0 0-1 0 0 0 0 0-1 0 0 0-1 0 0 0 0 0-1 0 0 1-1 0 0 0 0 0-1 0 0 0-1 0 0 0 0z" horiz-adv-x="1000" />

<glyph glyph-name="4827---potato-peeler" unicode="&#xe829;" d="M250 725l453 0c9 0 16-7 16-16l0-140c0-9-7-16-16-16l-453 0c-9 0-16 7-16 16l0 140c0 9 7 16 16 16z m438-31l-422 0 0-110 422 0 0 110z m-485-31c-8 0-15-7-15-16 0-9 7-16 15-16l485 0c8 0 15 7 15 16 0 9-7 16-15 16l-485 0z m406-355c0-65-5-168-32-241-19-54-51-92-100-92-118 0-133 221-133 333 0 49 35 80 80 94 17 5 35 7 53 7 17 0 35-2 52-7 45-14 80-45 80-94z m-61-231c25 69 30 168 30 231 0 33-25 54-58 64-13 4-28 6-43 6-15 0-30-2-44-6-32-10-58-31-58-64 0-102 12-302 102-302 33 0 56 30 71 71z m-202 461c29-24 39-50 40-76 0-35-16-75-34-114-3-8 0-17 8-21 8-3 17 1 21 8 19 43 37 86 36 127-1 27-8 52-27 76l-44 0z m217 0c-18-24-26-49-27-76 0-41 18-84 36-127 4-7 13-11 21-8 8 4 11 13 8 21-18 39-34 79-34 114 1 26 12 52 40 76l-44 0z m-86-446c8 0 16-3 21-9 5-5 9-13 9-21 0-8-4-16-9-21-5-6-13-9-21-9-9 0-16 3-22 9-5 5-9 13-9 21 0 8 4 16 9 21 6 6 13 9 22 9z m10-20c-3 3-6 5-10 5-4 0-8-2-11-5-2-2-4-6-4-10 0-4 2-8 4-10 3-3 7-5 11-5 4 0 7 2 10 5 3 2 4 6 4 10 0 4-1 8-4 10z" horiz-adv-x="1000" />

<glyph glyph-name="4828---opener" unicode="&#xe82a;" d="M307 725l40 0c7 0 12-4 14-10 3-6 7-10 11-13 3-3 7-4 10-4 4 0 8 1 11 4 4 3 8 8 11 14l14-7-14 7c2 6 8 9 14 9l164 0c7 0 13-4 15-10 3-6 6-10 10-13 3-3 7-4 11-4 4 0 7 1 10 4 5 3 8 8 11 14l14-7-14 7c3 6 9 9 15 9l39 0c17 0 33-10 43-25l-12-9 13 9c0 0 0-1 0-1 10-14 15-32 15-52l0 0c0-21-6-40-16-53l1 0c-1-1-1-1-1-2-11-14-26-24-43-24l-40 0c-6 0-12 5-14 11-3 5-7 10-11 13-3 3-6 4-10 4-4 0-8-1-11-4-4-3-8-8-11-14l-14 6 15-6c-3-6-9-10-15-10l-164 0c-7 0-13 5-15 11-3 5-6 10-10 13-3 3-7 4-11 4-3 0-7-1-10-4-5-3-8-8-11-14l-14 6 14-6c-3-6-8-10-15-10l-39 0c-17 0-32 10-43 26l0 0 0 0 0 0c-1 0-1 0-1 0-9 14-15 33-15 53l0 0c0 20 6 39 16 53l12-9-12 9c0 0 0 1 0 1 11 15 26 24 43 24z m31-31l-31 0c-6 0-12-4-17-11-1 0-1-1-1-1l0 0 0 0 0 0c-6-9-10-21-10-35l0 0c0-14 4-26 10-35 0 0 0 0 0-1l-13-8 13 8c5-7 12-11 18-11l31 0c4 6 9 12 15 17 8 6 18 10 29 10 11 0 21-4 30-10 6-5 11-11 15-17l146 0c4 6 9 12 15 17 9 6 19 10 30 10 11 0 21-4 30-10 5-5 10-11 15-17l30 0c6 0 12 4 17 10 0 1 1 1 1 1l13-8-13 8c6 9 10 22 10 36l0 0c0 13-4 25-9 34-1 0-1 1-1 1l0 0c-5 7-12 12-18 12l-30 0c-5-7-10-13-15-17-9-7-19-11-30-11-11 0-21 4-30 11-6 4-11 10-15 17l-146 0c-4-7-9-13-15-17-9-7-19-11-30-11-11 0-21 4-29 11-6 4-11 10-15 17z m146-141l0-132c0-9 7-16 16-16 9 0 16 7 16 16l0 132-32 0z m22-148c8 3 12 12 8 20-3 8-12 12-20 9-3-1-2-1-6-3-21-8-37-15-37-32 0-17 21-26 43-35 12-5 24-2 24-6 0-4-12-1-24-6-22-9-43-18-43-35 0-17 21-26 43-35 12-5 24-2 24-6 0-4-12-1-24-6-22-9-43-18-43-35 0-17 21-26 43-35 12-5 24-3 24-6 0-4-12-1-24-6-22-9-43-18-43-35 0-18 21-26 43-35 12-5 24-3 24-6 0-4-12-2-24-6-22-9-43-18-43-35 0-18 21-27 43-35 4-2 8-3 12-3-13-7-28-18-31-40-1-9 5-17 13-18 9-1 17 5 18 13 2 12 14 17 23 21 0 0 0 0 1 0l0 0 0 0 0 0c11 5 20 8 20 21 0 17-22 26-44 35-12 4-24 2-24 6 0 3 12 1 24 6 22 9 44 17 44 35 0 17-22 26-44 35-12 5-24 2-24 6 0 3 12 1 24 6 22 9 44 17 44 35 0 17-22 26-44 35-12 5-24 2-24 6 0 4 12 1 24 6 22 9 44 18 44 35 0 17-22 26-44 35-12 5-24 2-24 6 0 4 12 1 24 6 22 9 44 18 44 35 0 17-22 26-44 35-12 5-24 2-24 6 0 4 7-1 17 3 1 1-1 0 7 3z m16-375l0 0 2-6-2 6z m0 0l-3 8c0 0 0 0 0 0l3-8 0 0z" horiz-adv-x="1000" />

<glyph glyph-name="4829---serve-tea" unicode="&#xe82b;" d="M777 554l-273 0c1-6 1-14 2-23 4-72 11-203 40-203l189 0c29 0 37 131 41 203 0 9 1 17 1 23z m-290 32l307 0 0 0c1 0 1 0 2 0 9-1 15-9 14-18l0 0c-1-8-2-22-3-39-5-82-13-232-72-232l-189 0c-58 0-67 150-72 232 0 17-1 30-2 38 0 1 0 2 0 3 0 9 7 16 15 16z m-71-299c-9 0-16-7-16-16 0-8 7-15 16-15l450 0c9 0 16 7 16 15 0 9-7 16-16 16l-450 0z m383 257c-9 0-16-7-16-15 0-9 7-16 16-16 14 0-5 0 4 0 19 0 44 0 44-23 0-17-8-35-21-50-15-18-34-31-52-36-9-3-13-11-11-20 2-8 11-13 19-10 24 6 49 24 68 46 17 20 28 45 28 70 0 55-43 54-75 54-7 0 13 0-4 0z m-185-331c-29-3-69-7-106-10-32-3-63-6-86-9l0 0c0 0-1 0-1 0-3 0-7 0-10 0-22 0-54 6-81 15-31 10-56 24-59 37 0 1 0 1 0 2-4 24 21 33 52 39 6 1 9 2 13 2 10 2 20 4 28 6 5 2 7 3 8 5 0 0 0 0 0 0-4 0-13-1-23-3-16-3-35-7-55-6-13 0-45-4-74-12-15-5-29-11-37-18l0-77c8 3 16 4 24 5 16 2 32 1 48-2 26-5 75-14 113-19 24-3 43-5 48-4l4-15-4 15c0 0 1 0 1 0 6 1 16 3 28 6 55 11 162 34 171 43l0 0c-1 0-1 0-2 0z m-108 21c35 3 73 6 105 10 1 0 1 0 2 0 18 0 32-2 38-10 9-11 6-25-13-43-16-16-129-39-187-52-12-2-21-4-27-5 0-1 0-1-1-1l0 0c-9-2-32 0-59 4-39 5-89 14-115 19-13 3-26 3-39 2-12-1-24-4-35-10-3-1-5-2-8-2-9 0-16 7-16 16l0 106 0 0c0 3 2 7 4 10l0 0c0 0 0 0 0 0l0 0 0 0 0 0c12 14 33 24 56 31 32 9 68 14 84 13 17 0 34 3 48 5 15 3 27 5 37 3 8-2 15-7 19-13 3-5 4-11 4-17 0-6-1-12-5-17-5-8-13-14-26-18-9-2-20-4-30-6-6-1-11-2-13-3-14-2-26-2-27-3 0-1 0-1 0-2 2-1 18-6 37-12 25-8 53-14 72-14 2 0 4 0 6 0 0 0 1 0 1 0l2-15-2 15c20 3 53 6 88 9z m-338 34l-1 0 1 0 0 0z m456-54c3 0 5-2 3 0 0 1-1 1-3 0z m-483 89c0 9-7 16-16 16-9 0-16-7-16-16l0-173c0-9 7-16 16-16 9 0 16 7 16 16l0 173z" horiz-adv-x="1000" />

<glyph glyph-name="4830---serve-dinner" unicode="&#xe82c;" d="M626 182c-29-4-67-20-103-35-34-14-65-27-88-30l0 0c-1 0-1 0-1 0-4 0-7 0-11 0-21 0-53 6-80 15-31 9-57 24-59 37 0 1 0 2 0 3 0 1 0 3 0 4 7 38 36 33 68 28 11-2 23-4 33-3 3 1 5 2 6 3 0 1 0 1 0 2 0 0 0 0 0 0-2 1-5 1-8 2-18 5-49 12-77 13-12 1-42-6-70-16-17-6-32-13-41-21l0-77c8 3 16 4 25 5 15 2 31 1 48-2 25-5 74-14 113-19 24-3 43-5 48-4l3-16-3 16c0 0 0 0 0 0 15 4 62 24 107 46 43 20 83 41 92 48-1 1-1 1-2 1z m-115-6c38 16 79 33 112 37 1 0 2 0 3 0 9 0 18-4 24-10 3-3 5-6 7-10 2-3 3-8 3-12 0-7-3-15-9-21-1 0-1 0-1-1l0 0c-9-8-54-32-101-54-46-22-95-44-112-48 0-1-1-1-1-1l0 0c-9-2-32 0-60 4-39 5-88 14-114 19-14 3-27 3-39 2-12-1-24-4-36-10-2-1-5-2-7-2-9 0-16 7-16 16l0 106 0 0c0 3 1 7 3 10l0 0c1 0 1 0 1 0l0 0 0 0 0 0c11 14 34 25 58 34 31 11 66 18 81 17 31-1 65-9 83-14 4-1 7-1 9-2 8-2 15-7 19-14 3-5 5-10 5-16 0-6-2-12-5-18-5-7-13-14-25-17-1-1-2-1-3-1l-2 15 2-15c-15-2-29 1-43 3-14 2-26 4-30 0 4-2 18-6 35-12 24-7 53-13 71-13 3 0 5 0 6 0 1 0 1 0 2 0l2-15-2 15c19 3 48 15 80 28z m-331 15l0 0 0 0 0 0z m-29 35c0 9-7 16-15 16-9 0-16-7-16-16l0-173c0-9 7-16 16-16 8 0 15 7 15 16l0 173z m41 82c-9 0-16-7-16-16 0-9 7-16 16-16l672 0c9 0 16 7 16 16 0 9-7 16-16 16l-672 0z m336-32l-292 0c-9 0-16 7-16 16 0 85 34 162 90 218 56 56 133 90 218 90 85 0 162-34 218-90 56-56 90-133 90-218 0-9-7-16-15-16l-293 0z m-276 32l276 0 277 0c-4 70-34 133-81 180-50 50-119 81-196 81-76 0-146-31-196-81-46-47-76-110-80-180z m276 292c5 0 8 2 11 5 3 3 5 7 5 11 0 4-2 8-5 11-3 3-6 5-11 5-4 0-8-2-11-5-3-3-4-7-4-11 0-4 1-8 4-11 3-3 7-5 11-5z m33-17c-8-9-20-14-33-14-13 0-24 5-33 14-8 8-14 20-14 33 0 13 6 25 14 33 9 9 20 14 33 14 13 0 25-5 33-14 9-8 14-20 14-33 0-13-5-25-14-33z" horiz-adv-x="1000" />

<glyph glyph-name="4831---serve-wine" unicode="&#xe82d;" d="M697 91c-35-4-80-8-122-12-38-4-74-7-100-10l0 0c0 0-1 0-1 0-4-1-8-1-12-1-24 0-61 8-92 18-35 11-64 26-66 41l0 0c-5 28 23 38 58 45 2 0 8 1 15 2 11 2 22 5 32 7 6 2 9 4 10 6 1 1 1 2 1 2 0 1 0 1 0 2 0 0 0 0 0 0-5 1-16-1-29-3-18-4-40-8-64-7-15 0-52-4-85-14-19-6-36-13-45-22l0-93c10 3 20 5 31 6 17 2 35 1 54-3 30-5 86-15 131-21 28-4 50-7 56-5 5 1 18 4 33 7 64 13 187 39 199 50 6 7 15 2 13 5-1 1-7 0-17 0z m-125 19c41 4 85 8 121 12 1 0 2 0 3 0 20 0 35-2 42-11 9-12 5-27-16-47-18-17-147-45-213-59-15-3-26-5-33-7-10-2-36 0-67 5-46 6-103 16-132 22-16 3-32 4-46 2-14-1-28-5-42-12-2-1-5-2-8-2-8 0-15 7-15 16l0 123 0 0c0 3 1 7 3 10l0 0c0 0 0 0 1 0l0 0 0 0 0 0c12 15 37 26 63 34 36 11 78 17 95 16 20-1 40 3 57 6 17 3 31 6 41 4 9-3 16-8 20-15 4-5 5-11 5-18 0-6-1-13-5-19-5-8-15-15-28-19-11-3-24-5-36-7-3-1-6-2-14-3-18-4-33-7-33-8 0 0 0-1 0-1 2-2 21-9 44-17 29-9 62-16 83-16 3 0 6 1 8 1 0 0 1 0 1 0l2-15-2 15c24 3 61 6 101 10z m-424 82c0 9-7 16-15 16-9 0-16-7-16-16l0-200c0-9 7-16 16-16 8 0 15 7 15 16l0 200z m300 500c40-93 80-159 120-198 27-26 53-39 78-39 26 0 52 13 78 39 40 39 80 105 120 198l-396 0z m98-220c-46 44-91 121-135 229-1 2-2 5-2 7 0 9 7 16 16 16l442 0c2 0 4-1 6-1 8-4 12-13 9-21l0 0c-45-109-90-186-136-230-33-32-66-48-100-48-34 0-67 16-100 48z m189-335c9 0 16 7 16 16 0 9-7 16-16 16l-178 0c-9 0-16-7-16-16 0-9 7-16 16-16l178 0z m-73 298c0 9-7 16-16 16-8 0-15-7-15-16l0-282c0-9 7-16 15-16 9 0 16 7 16 16l0 282z" horiz-adv-x="1000" />

<glyph glyph-name="4832---pour-wine" unicode="&#xe82e;" d="M342 419c11-15 19-33 24-53 6-19 9-40 9-62 0-46-13-88-35-118-23-32-55-52-91-52-36 0-68 20-91 52-22 30-35 72-35 118 0 22 3 43 8 62 6 20 15 38 26 54l0 0c3 6 11 8 17 6 12-2 24-5 36-6 13-1 26-2 39-2 13 0 26 1 39 2 13 2 25 4 37 6l0 0c7 2 14-1 17-7z m-6-62c-3 14-9 26-15 37-10-2-20-4-30-5-14-1-28-2-42-2-14 0-28 1-42 2-10 1-20 3-30 5-7-11-12-23-16-37-4-16-7-34-7-53 0-39 11-75 30-100 17-24 40-39 65-39 25 0 48 15 65 39 19 25 30 61 30 100 0 19-3 37-8 53z m-71-211c0 9-7 16-16 16-9 0-16-7-16-16l0-141c0-9 7-16 16-16 9 0 16 7 16 16l0 141z m-112-143c-7-4-11-13-7-21 4-8 13-11 21-7 9 4 20 8 34 10 14 3 30 4 48 4 17 0 33-1 47-4 14-3 26-6 35-10 8-4 17-1 21 7 4 7 0 17-7 21-11 5-26 10-43 13-16 3-34 4-53 4-19 0-37-1-53-4-17-3-32-7-43-13z m124 630l33 82 14-6-14 6c3 8 12 12 20 9 1 0 1 0 1 0l175-71c2-2 9 4 17 10 22 18 50 40 102 15l251-123-7-14 7 14c8-3 11-12 8-20l-71-175-15 6 15-6c-4-8-12-11-20-9l-265 88c-55 18-60 54-63 82-1 10-2 18-5 19l-175 72 6 14-6-14c-8 3-12 12-9 20 0 0 0 1 1 1z m56 56l-22-54 161-66c20-8 22-24 24-44 2-20 5-45 41-56l252-84 61 149-239 116c-34 17-53 1-69-11-15-13-28-23-48-15l-161 65z m-76-41c6 6 6 16 0 22-6 6-16 6-22 0-6-6-11-12-15-19l13-8-13 8c-1 0-1-1-1-1-4-6-7-13-9-19-12-37 0-70 12-102 9-23 18-46 13-66-2-8 3-17 11-19 9-2 17 3 19 12 7 29-3 56-13 84-10 27-21 55-12 81 1 5 3 9 6 13 0 0 0 0 0 1l0 0c3 4 7 9 11 13z" horiz-adv-x="1000" />

<glyph glyph-name="4833---pour-tea" unicode="&#xe82f;" d="M413 242l-213 0c0-5 0-10 0-16 4-57 10-160 30-160l152 0c21 0 27 103 30 160 0 6 1 11 1 16z m-230 31l247 0 0 0c0 0 1 0 1 0 9-1 15-9 14-17l0 0c-1-7-1-18-2-31-4-68-11-190-61-190l-152 0c-50 0-57 122-61 190 0 12-1 23-2 30 0 1 0 2 0 2 0 9 7 16 16 16z m-58-246c-9 0-16-7-16-16 0-9 7-16 16-16l362 0c9 0 16 7 16 16 0 9-7 16-16 16l-362 0z m309 213c-9 0-16-7-16-16 0-9 7-16 16-16 7 0 6 0 3 1 1 0 1 0 1 0 14 0 31-1 31-16 0-13-6-27-16-39-12-13-27-24-41-28-8-2-13-11-10-19 2-8 11-13 19-11 20 6 40 20 56 38 14 17 23 38 23 59 0 46-35 47-62 47l0 0c2 0 5 0-1 0 0 0 0 0 0 0l0 0-3 0z m3 0c-2 0-3 0 0 0l0 0 0 0z m0-16l0-15c-4 0-2 0 0 0l0 15z m132 347c-52-31-93-67-117-102-20-30-26-58-14-80 16-27 39-51 63-69 21-15 43-26 64-28l254 152c8 19 10 43 6 69-4 30-15 61-31 88-13 22-42 30-80 26-42-5-92-24-143-54l0 0 0 0c0 0 0-1 0-1l-1 0c0 0 0 0-1-1z m-143-85c27 39 71 79 127 112 1 0 1 1 2 1l0 0 0 0 7-12 1-1-8 13c54 33 110 53 155 59 51 5 91-7 111-41 18-30 31-66 35-100 5-33 2-65-10-90-1-3-4-6-7-8l-8 14 8-13-261-156c-3-2-6-3-10-3l0 0c-28 1-58 14-85 34-28 20-53 48-71 78-20 33-13 73 14 113z m93 173c-4-3-7-7-9-12-1-5 0-10 2-15 3-4 7-7 12-8 5-1 10-1 15 2 4 3 7 7 8 12 1 4 1 10-2 14-2 5-7 8-11 9-5 1-10 0-15-2z m-24-8c2 8 8 16 16 21 8 5 18 6 26 4 9-2 17-8 22-16 4-8 6-18 3-26-2-9-7-17-15-22-9-4-18-6-27-3-8 2-16 7-21 16-5 8-6 17-4 26z m65-31c-4 8-14 10-21 6-8-5-10-14-6-22l13-20c4-8 14-10 21-6 7 5 10 14 5 21l-12 21z m-107-114c-4-1-7-5-7-9 1-4 5-7 9-7 15 2 35 8 59 17 22 10 47 22 72 37 26 16 50 32 69 48 19 16 34 31 42 43 3 4 2 9-2 11-3 3-8 2-11-2-7-11-21-25-39-40-19-15-41-31-67-46-25-15-49-27-70-36-22-9-41-15-55-16z m315 139c-1-8 5-16 13-17 9-2 17 4 18 13 1 4 2 11 5 16 1 4-1 5 0 5 9 6 19 11 28 11 6 1 12-2 18-12 9-15 11-36 8-57-4-23-14-46-28-60-6-7-5-17 1-22 6-6 16-6 22 0 18 19 31 48 36 77 4 28 1 56-12 78-13 22-29 28-47 28-15-1-29-8-41-16-5-2-11-11-14-20-3-8-6-17-7-24z m-352-240c8 1 14 9 13 17-1 9-9 15-17 14l-98-13 2-16-2 16c-6-1-11-5-13-9l-19-36 0 0c-4-8-1-17 7-21 2-1 3-2 5-2l158-33c8-2 17 4 18 12 2 9-3 17-12 19l-138 29 6 11 90 12z" horiz-adv-x="1000" />

<glyph glyph-name="4834---cookbook" unicode="&#xe830;" d="M165 651c54 23 114 29 172 22 62-7 123-29 172-62l-9-13 9 13c4-3 7-8 7-13l0-495c0-8-7-15-16-15-3 0-6 1-9 2-44 30-98 50-154 56-53 6-108 1-161-20l0 0c-8-3-17 1-21 9 0 2-1 4-1 6l0 495c0 7 5 13 11 15z m168-9c-49 6-100 1-147-17l0-462c51 16 104 20 154 14 52-6 101-22 144-46l0 459c-43 27-96 46-151 52z m481-17c-46 18-97 23-147 17-55-6-108-25-151-52l0-459c43 24 92 40 144 46 50 6 103 2 154-14l0 462z m-150 48c57 7 117 1 171-22 6-2 11-8 11-15l0-495c0-2-1-4-1-6-3-8-12-12-21-9l0 0c-53 21-108 26-161 20-56-6-110-26-154-56-3-1-6-2-9-2-9 0-16 7-16 15l0 495c0 5 3 10 7 13l9-13-9 13c49 33 110 55 173 62z m190-103c-8 3-17-1-21-9-3-8 1-17 9-20l17-8 0-444-39 15c-50 19-104 25-156 19-52-6-103-24-148-53l-16-11-16 11c-44 29-96 47-148 53-52 6-106 0-155-19l-40-15 0 444 17 8c8 3 12 12 9 20-4 8-13 12-21 9l-26-12c-6-2-11-8-11-14l0-478c0-2 1-4 1-5 4-9 13-13 21-10l0 1 61 23c44 17 93 22 140 17 48-5 94-22 134-48l25-17c5-4 12-4 18 0l25 17c40 26 86 43 134 48 47 5 96 0 140-17l61-23c2-1 4-2 6-2 9 0 16 7 16 16l0 477c0 7-4 12-10 15l-6-14 6 14-27 12z m-72-181c0-23-7-45-19-63-11-18-26-32-45-41l0-6c0-4-3-7-8-7l-46 0-46 0c-4 0-8 3-8 7l0 6c-18 9-34 23-45 41-12 18-18 40-18 63 0 5 3 8 7 8l220 0c5 0 8-3 8-8z m-32-55c9 14 15 30 16 47l-204 0c2-17 7-33 16-47 11-16 25-29 43-37 3-1 5-4 5-8l0-2 38 0 38 0 0 2c0 3 2 6 5 8l3-8-3 7c18 9 33 22 43 38z m-105 127c-20 6-30 16-39 26-8 8-15 16-29 20l-20-38c11-8 22-10 32-11 14-3 28-5 45-18l11 21z m-28 37c9-10 19-20 40-24 1-1 2-1 3-1 4-2 5-7 3-11l0 0-20-38c0-1-1-2-2-3-3-3-8-3-11 1l0 0c-16 16-30 18-43 20-14 2-29 4-45 19-3 2-4 6-2 9l0 0 26 50c1 3 5 5 9 4l0 0c22-5 32-16 42-26z m51-44c-3 2-6 1-9-1-4-3-3-10 2-13 4-2 8-4 12-7 3-2 6-2 9 0 4 3 5 9 0 13-4 3-9 6-14 8z m35-65c1-5 6-7 11-5 3 2 5 6 4 9l0 1 0 0-1 0 0 1 0 0 0 0 0 1 0 0 0 0 0 1 0 0 0 0-1 1 0 0 0 0 0 0 0 1 0 0 0 0 0 1 0 0 0 0-1 1 0 0 0 0 0 1 0 0 0 0 0 0 0 1-1 0 0 0 0 1 0 0 0 0 0 1 0 0 0 0 0 1-1 0 0 0c-2 6-12 6-14 0-1-2-1-4 0-6l0 0 0-1 0 0 0 0 0 0 1-1 0 0 0 0 0 0 0-1 0 0 0 0 0 0 0-1 0 0 1 0 0 0 0-1 0 0 0 0 0 0 0-1 0 0 0 0 0-1 0 0 1 0 0 0 0-1 0 0 0 0 0 0 0-1 0 0 0 0 0-1 0 0 1 0 0 0 0-1 0 0z m-39 52c-2 2-5 2-8 1-5-3-5-11 0-14 4-2 7-5 10-9 5-5 13-2 14 5 0 2-1 4-2 6-4 4-9 8-14 11z m-7-13c-3 1-6 1-8 0-6-3-6-10-1-13 3-2 6-5 7-8 2-5 7-7 11-4 3 2 5 6 3 9-2 7-6 12-12 16z m-441 124c-4-1-6-6-4-10 2-4 6-6 10-4 36 15 76 19 114 15 42-5 83-20 115-41 4-3 9-2 11 2 2 3 1 8-2 11-35 23-78 39-122 44-41 4-83 0-122-17z m0-58c-4-2-6-7-4-11 2-4 6-6 10-4 36 16 76 20 114 15 42-4 83-19 115-41 4-2 9-1 11 2 2 4 1 9-2 11-35 23-78 39-122 44-41 5-83 0-122-16z m0-59c-4-2-6-6-4-10 2-4 6-6 10-5 36 16 76 20 114 16 42-5 83-20 115-42 4-2 9-1 11 2 2 4 1 9-2 11-35 23-78 39-122 44-41 5-83 0-122-16z m0-59c-4-2-6-6-4-10 2-4 6-6 10-4 36 15 76 19 114 15 42-5 83-20 115-41 4-3 9-2 11 2 2 3 1 8-2 11-35 23-78 38-122 43-41 5-83 1-122-16z m0-59c-4-1-6-6-4-10 2-4 6-6 10-4 36 15 76 20 114 15 42-4 83-19 115-41 4-3 9-2 11 2 2 4 1 8-2 11-35 23-78 39-122 44-41 4-83 0-122-17z m0-58c-4-2-6-7-4-11 2-4 6-5 10-4 36 16 76 20 114 16 42-5 83-20 115-42 4-2 9-1 11 2 2 4 1 9-2 11-35 23-78 39-122 44-41 5-83 0-122-16z" horiz-adv-x="1000" />

<glyph glyph-name="4835---recipes-book-i" unicode="&#xe831;" d="M305 663l453 0c9 0 16-7 16-16l0-672c0-9-7-16-16-16l-453 0c-9 0-16 7-16 16l0 672c0 9 7 16 16 16z m438-32l-422 0 0-640 422 0 0 640z m-442 0c8 1 15 8 15 16 0 9-8 16-16 15-18 0-33 6-40 15-2 2-3 4-3 6 0 1 1 3 3 6 11 11 40 20 96 20l0 0 360 0 22-58c3-8 12-12 20-9 8 2 12 11 9 19l-25 68c-2 7-8 12-15 12l-371 0 0 0 0 0 0 0c-66-1-102-14-118-31-8-8-12-17-12-27 0-9 3-18 9-26 13-15 37-27 66-26z m168-78c-8 0-15-7-15-15 0-9 7-16 15-16l125 0c9 0 16 7 16 16 0 8-7 15-16 15l-125 0z m-62-62c-9 0-16-7-16-16 0-9 7-16 16-16l250 0c8 0 15 7 15 16 0 9-7 16-15 16l-250 0z m163-295c-12-3-27-9-40-15-15-6-28-11-39-12l0-1c0 0 0 0 0 0-1 0-3 0-5 0-9 0-23 3-34 7-14 4-25 10-26 17l0 0 0 0 0 0c0 0 0 0 0 1-1 0-1 0-1 0 0 1 1 1 1 2 3 17 16 15 30 13 5-1 10-2 14-2 0 1 1 1 1 1-1 0-1 0-2 1-8 1-21 5-33 5-5 0-18-2-29-7-7-2-14-5-17-8l0-31c3 1 6 1 9 1 7 1 14 1 21-1 11-2 32-5 48-8 11-1 19-2 21-1 5 1 26 10 45 19 15 7 29 15 36 19z m-46 0c16 7 33 14 48 16 0 0 1 0 1 0 5 0 9-2 12-5 1-1 2-3 3-4 1-2 1-4 1-6 0-3-1-7-4-9 0-1 0-1 0-1l0 0c-4-4-24-14-44-24-20-10-42-19-49-21-4-1-14 0-26 2-17 2-38 6-49 8-6 1-11 1-16 1-5-1-10-2-15-4 0 0 0 0 0 0-2-1-3-1-4-1-4 0-8 3-8 8l0 45 0 0c0 2 1 4 2 5l0 0 0 0 0 0c5 6 15 11 25 15 14 5 29 8 36 8 13-1 28-4 36-6 1-1 3-1 3-1 4-1 7-4 9-7 2-2 2-5 2-7 0-3 0-6-2-9-2-3-6-6-11-8-1 0-1 0-2 0l-1 8 1-8c-6-1-12 0-18 1-5 1-9 2-11 1 3 0 8-2 13-3 11-4 23-6 30-6 1 0 2 0 3 0 0 0 0 0 1 0l1-8-1 8c8 1 20 6 34 12z m-91-3l1 0 0 0-1 0z m-51 8l0 0 0 0 0 0z m-11 15c0 5-4 8-8 8-4 0-8-3-8-8l0-74c0-4 4-8 8-8 4 0 8 4 8 8l0 74z m16 36c-4 0-7-3-7-7 0-5 3-8 7-8l289 0c4 0 7 3 7 8 0 4-3 7-7 7l-289 0z m144-15l-125 0c-4 0-8 3-8 8 0 36 15 70 39 94 24 24 58 39 94 39 37 0 71-15 95-39 24-24 39-58 39-94 0-5-4-8-8-8l-126 0z m-117 15l117 0 118 0c-2 30-15 56-34 76-22 21-51 34-84 34-32 0-61-13-83-34-19-20-32-46-34-76z m117 126c2 0 3 1 4 2l0 0 0 0c1 0 1 0 1 0 1 1 1 2 1 4 0 1-1 2-2 3l0 0 0 0c0 1 0 1 0 1-1 1-2 1-4 1-1 0-2-1-3-2l0 0 0 0c-1 0-1 0-1 0-1-1-1-2-1-3 0-2 1-3 2-4l0 0 0 0c0-1 0-1 0-1 1-1 2-1 3-1z m10-4l5-5c-3-4-9-7-15-7-5 0-10 2-14 6 0 0 0 0-1 1l6 5-6-5c-3 3-6 9-6 15 0 5 2 10 6 14 0 0 0 0 0 1l6-6-5 6c3 3 9 6 14 6 6 0 11-2 15-6 0 0 0 0 0 0l-5-6 5 5c4-3 7-9 7-14 0-6-2-11-6-15 0 0 0 0-1 0l-5 5z m-283 310c0 8-7 15-16 15-9 0-16-7-16-15l0-644c0 0 0-1 1-2 1-20 8-36 20-49 11-13 28-23 48-29 9-2 17 2 20 11 2 8-2 16-11 19-15 4-26 11-34 19-7 8-11 19-12 31l0 0 0 644z" horiz-adv-x="1000" />

<glyph glyph-name="4836---recipes-book-ii" unicode="&#xe832;" d="M305 663l453 0c9 0 16-7 16-16l0-672c0-9-7-16-16-16l-453 0c-9 0-16 7-16 16l0 672c0 9 7 16 16 16z m438-32l-422 0 0-640 422 0 0 640z m-442 0c8 1 15 8 15 16 0 9-8 16-16 15-18 0-33 6-40 15-2 2-3 4-3 6 0 1 1 3 3 6 11 11 40 20 96 20l0 0 360 0 22-58c3-8 12-12 20-9 8 2 12 11 9 19l-25 68c-2 7-8 12-15 12l-371 0 0 0 0 0 0 0c-66-1-102-14-118-31-8-8-12-17-12-27 0-9 3-18 9-26 13-15 37-27 66-26z m168-78c-8 0-15-7-15-15 0-9 7-16 15-16l125 0c9 0 16 7 16 16 0 8-7 15-16 15l-125 0z m-62-62c-9 0-16-7-16-16 0-9 7-16 16-16l250 0c8 0 15 7 15 16 0 9-7 16-15 16l-250 0z m-149 193c0 8-7 15-16 15-9 0-16-7-16-15l0-644c0 0 0-1 1-2 1-20 8-36 20-49 11-13 28-23 48-29 9-2 17 2 20 11 2 8-2 16-11 19-15 4-26 11-34 19-7 8-11 19-12 31l0 0 0 644z m432-417c0-32-9-61-25-86-15-24-37-44-62-56l0-9c0-5-4-8-8-8l-63 0-64 0c-4 0-7 3-7 8l0 9c-26 12-48 32-63 56-16 25-25 54-25 86 0 4 3 7 8 7l302 0c4 0 7-3 7-7z m-38-77c13 20 21 43 23 69l-286 0c1-26 9-49 22-69 15-23 36-42 60-53 3-1 5-4 5-7l0-7 56 0 55 0 0 6c0 3 2 6 5 8l3-7-3 7c25 11 46 30 60 53z m-108 76c0-4 4-7 8-7 5 0 8 4 8 8-1 6-2 13-5 19-3 6-7 12-12 17-10 9-22 15-33 17-12 1-24-2-32-10-6-6-9-13-10-22-1-8 1-16 5-25 1-4 6-5 10-4 4 2 6 7 4 11-3 6-4 11-3 17 0 4 2 9 5 12 5 4 12 6 19 5 8-1 16-5 24-12 3-4 6-8 8-13 3-4 4-9 4-13z m-104 79l3 3-51 51c0 0-1 0-1 0-1 0-2 0-2 0l-5 5 5-5 0 0 0 0m70-56l-14-14 0 0c-3-3-8-3-11 0l0 0-56 56c-3 3-5 8-5 12 0 5 1 9 5 12 0 0 0 1 0 1l0 0 0 0 0 0 0 0c4 3 8 5 13 5 4 0 9-2 12-5l56-56 0 0c3-3 3-8 0-11l0 0z m-70 56c0 0 0 0 0 0m0 0c0-1 0-1 0-2 0 0 0-1 0-1l51-51m36-44c3-3 8-3 11 0 3 3 3 8 0 11l-34 34c-3 3-8 3-11 0-3-3-3-8 0-11l34-34z m100 102c2 4 1 9-3 11-4 2-8 1-10-3-7-12-10-20-9-28 0-9 4-16 12-26 3-3 6-8 6-13 1-4 0-8-2-13-2-4-1-9 3-11 4-2 9 0 11 4 4 8 5 15 4 22-1 8-5 15-10 21-6 7-9 12-9 17 0 4 2 10 7 19z m38-16c2 4 0 9-3 11-4 2-9 0-11-3-5-9-7-15-7-22 1-7 4-12 10-20 2-2 3-5 4-8 0-3 0-6-2-9-2-4 0-8 4-10 4-2 8 0 10 3 3 7 4 12 3 18-1 6-3 12-7 16-4 5-6 8-6 11 0 3 1 7 5 13z m-82-43c-2-4 0-9 3-11 4-2 9-1 11 3 3 6 5 10 4 15 0 5-2 8-6 13-1 1-2 2-2 4 0 1 0 2 1 3 2 4 0 9-4 10-3 2-8 1-10-3-2-4-3-9-2-12 0-5 2-9 5-12 2-2 3-3 3-4 0-1-1-3-3-6z" horiz-adv-x="1000" />
</font>
</defs>
</svg>
